<?xml version="1.0" standalone="no"?>
<!DOCTYPE svg PUBLIC "-//W3C//DTD SVG 1.1//EN" "http://www.w3.org/Graphics/SVG/1.1/DTD/svg11.dtd" >
<svg>
<metadata>
Created by FontForge 20110222 at Fri Mar  1 15:23:27 2013
 By www-data
Copyright (c) 2011 by Omnibus-Type (www.omnibus-type.com), with Reserved Font Name "Sansita One".
</metadata>
<defs>
<font id="SansitaOne" horiz-adv-x="607" >
  <font-face 
    font-family="Sansita One"
    font-weight="400"
    font-stretch="normal"
    units-per-em="1000"
    panose-1="2 0 6 3 8 0 0 2 0 3"
    ascent="800"
    descent="-200"
    x-height="530"
    cap-height="660"
    bbox="-151 -258 1413 907"
    underline-thickness="50"
    underline-position="-50"
    unicode-range="U+0020-FB02"
  />
<missing-glyph horiz-adv-x="0" 
 />
    <glyph glyph-name=".notdef" horiz-adv-x="0" 
 />
    <glyph glyph-name=".null" horiz-adv-x="0" 
 />
    <glyph glyph-name="nonmarkingreturn" horiz-adv-x="200" 
 />
    <glyph glyph-name="space" unicode=" " horiz-adv-x="206" 
 />
    <glyph glyph-name="exclam" unicode="!" horiz-adv-x="290" 
d="M-10 59q0 38 28.5 58.5t70.5 20.5t68.5 -20.5t26.5 -58.5t-29.5 -59t-71.5 -21t-67.5 21t-25.5 59zM44 247q0 7 2 17l78 402q37 14 81 14t67 -28t23 -69.5t-16 -88t-35.5 -93.5t-36 -95.5t-17.5 -99.5q-23 -26 -63 -26t-61.5 18.5t-21.5 48.5z" />
    <glyph glyph-name="quotedbl" unicode="&#x22;" horiz-adv-x="440" 
d="M66 461q37 128 39 263l29 4q15 2 26 2q44 0 68 -21.5t24 -59.5q0 -40 -18 -84q-32 -78 -62 -104h-106zM275 461q37 128 39 263l29 4q15 2 26 2q44 0 68 -21.5t24 -59.5q0 -40 -18 -84q-32 -78 -62 -104h-106z" />
    <glyph glyph-name="numbersign" unicode="#" horiz-adv-x="626" 
d="M24 143q-6 22 -6 48.5t19 46.5t54 20h43l22 129h-101q-6 22 -6 49t19 46.5t54 19.5h53l16 97q11 61 66 61q22 0 51 -12l-23 -146h111l16 97q5 29 22 45t42 16t52 -12l-22 -146h95q5 -23 5 -49.5t-18.5 -46t-53.5 -19.5h-46l-20 -129h101q6 -23 6 -49.5t-19 -46t-54 -19.5
h-51l-12 -82q-4 -29 -26 -45t-48.5 -16t-51.5 12l23 131h-106l-12 -82q-4 -29 -26 -45t-48.5 -16t-51.5 12l22 131h-90zM248 258h107l22 129h-110z" />
    <glyph glyph-name="dollar" unicode="$" horiz-adv-x="563" 
d="M38 17.5q-45 30.5 -45 81.5t30.5 84t78.5 33q43 0 73 -13q-20 -34 -20 -77.5t14.5 -60.5t50.5 -17t62 21.5t26 57.5t-18.5 58t-46.5 39.5t-60.5 34.5t-60.5 41q-65 54 -65 143q0 85 69 151q68 65 174 81l5 27q8 44 22.5 59.5t40.5 15.5t48 -5l-19 -94q81 -6 124.5 -37
t43.5 -79.5t-33.5 -76.5t-87.5 -28q-33 0 -57 10q6 13 12 35.5t6 35.5t-2 27.5t-9 26.5q-14 25 -54.5 25t-64.5 -27t-24 -63.5t19.5 -58t48 -41.5t62.5 -40t63 -44q67 -57 67 -129q0 -89 -71 -152q-70 -61 -176 -77l-5 -27q-9 -44 -23.5 -59.5t-43.5 -15.5t-47 5l18 94
q-80 5 -125 35.5z" />
    <glyph glyph-name="percent" unicode="%" horiz-adv-x="1036" 
d="M86.5 326q-35.5 40 -35.5 98t13.5 103t41.5 79q62 73 175 73q155 0 155 -159q0 -108 -65 -172q-64 -62 -176 -62q-73 0 -108.5 40zM128 9l602 635q38 38 96 38q50 0 65 -38l-601 -630q-35 -37 -87 -37q-25 0 -45 9t-30 23zM210 337q41 0 70 67q27 64 27 156q0 68 -30 68
q-39 0 -67 -76q-27 -70 -27 -142.5t27 -72.5zM634.5 20q-35.5 40 -35.5 98t13.5 103t41.5 79q62 73 175 73q111 0 144 -85q12 -30 12 -79t-17 -92.5t-48 -74.5q-65 -62 -177 -62q-73 0 -108.5 40zM759 31q21 0 39 18.5t30 48.5q27 65 27 156q0 68 -30 68q-37 0 -67 -76
q-27 -69 -27 -142t28 -73z" />
    <glyph glyph-name="ampersand" unicode="&#x26;" horiz-adv-x="733" 
d="M435 17q-89 -37 -198 -37q-96 0 -161 50q-71 53 -71 147q0 139 167 178q-28 79 -28 134t21 90.5t57 58.5q68 42 182 42q79 0 129 -30q51 -31 51 -77q0 -52 -36 -81q-32 -27 -85 -27q-31 0 -41 3q4 22 4 58t-12 60.5t-32 24.5q-37 0 -51 -32.5t-14 -80t9.5 -91t27.5 -85.5
q38 -87 99 -146q16 39 18 100q0 54 -37 86q14 13 41 21t51 8q53 0 78 -32t25 -83q0 -91 -65 -166q25 -7 48 -7q50 0 66 13q8 -19 8 -44q0 -50 -32.5 -71t-90.5 -21t-128 37zM206 279q-22 -22 -22 -61t9 -63.5t23 -42.5q32 -39 74 -39q38 0 60 8q-84 79 -144 198z" />
    <glyph glyph-name="quotesingle" unicode="'" horiz-adv-x="231" 
d="M66 461q37 128 39 263l29 4q15 2 26 2q44 0 68 -21.5t24 -59.5q0 -40 -18 -84q-32 -78 -62 -104h-106z" />
    <glyph glyph-name="parenleft" unicode="(" horiz-adv-x="329" 
d="M26 26.5q-15 66.5 -15 141.5t14.5 152t40.5 147t61 131t75 106q87 96 173 96q37 0 51 -20q-209 -145 -266 -486q-18 -111 -18 -238q0 -73 21.5 -128.5t70.5 -107.5q-6 -20 -40 -20t-67.5 29.5t-59.5 80t-41 117z" />
    <glyph glyph-name="parenright" unicode=")" horiz-adv-x="326" 
d="M-107 -180q137 93 209 282q72 185 72 441q0 74 -21.5 129.5t-69.5 107.5q2 8 13 14t22 6q37 0 71 -30t60 -80q56 -109 56 -258q0 -152 -55 -300q-53 -144 -136 -236q-87 -96 -173 -96q-38 0 -48 20z" />
    <glyph glyph-name="asterisk" unicode="*" horiz-adv-x="486" 
d="M327 287q-55 0 -82 119l-63 -82q-25 -35 -33 -53q-24 0 -42.5 15.5t-18.5 44t42 69.5q29 32 68 62q-33 8 -68 15.5t-72 7.5q0 38 20 67t54 29t62 -15l55 -30q11 84 11 114t-1 35q24 16 51 16q50 0 50 -51q0 -48 -34 -124q118 47 146 71q21 -21 21 -50.5t-17.5 -47
t-43.5 -27.5q-38 -16 -108 -25q23 -38 46.5 -67t36.5 -37q-30 -56 -80 -56z" />
    <glyph glyph-name="plus" unicode="+" horiz-adv-x="473" 
d="M10 190q-4 12 -4 36.5t20.5 45t52.5 20.5h93l20 107q7 31 28.5 49t48.5 18t45 -7l-32 -167h149l3 -16q2 -7 2 -14q0 -34 -23 -53t-61 -19h-90l-24 -123q-13 -61 -77 -61q-23 0 -44 7l36 177h-143z" />
    <glyph glyph-name="comma" unicode="," horiz-adv-x="246" 
d="M-71 -129q77 83 77 187q0 32 -11 62q12 8 36 13.5t42 5.5q44 0 70 -23.5t26 -64.5t-16 -74t-43 -58q-58 -54 -138 -54q-16 0 -43 6z" />
    <glyph glyph-name="hyphen" unicode="-" horiz-adv-x="392" 
d="M54 162q-32 23 -32 67q0 24 12 43.5t36 22.5h197q33 0 43 20q16 -9 23 -28t7 -39t-15.5 -39.5t-38.5 -21.5h-183q-21 0 -31 -6.5t-18 -18.5z" />
    <glyph glyph-name="period" unicode="." horiz-adv-x="257" 
d="M-13 59q0 38 29.5 59t71.5 21t67.5 -21t25.5 -59t-28.5 -58.5t-70.5 -20.5t-68.5 20.5t-26.5 58.5z" />
    <glyph glyph-name="slash" unicode="/" horiz-adv-x="366" 
d="M-56 -149q0 18 9 44l327 903q18 3 53.5 3t57 -9.5t21.5 -38.5q0 -25 -16 -71l-318 -878q-8 -4 -55 -4q-79 0 -79 51z" />
    <glyph glyph-name="zero" unicode="0" horiz-adv-x="604" 
d="M33 238q0 202 95 322t258 120q87 0 137 -65t50 -173.5t-24.5 -193t-68.5 -144.5q-92 -125 -245 -125q-103 0 -152.5 63.5t-49.5 195.5zM210 170q0 -101 33 -101q30 0 57.5 35t49.5 94q47 129 47 289q0 54 -8.5 78.5t-31 24.5t-49 -39t-48.5 -100q-50 -139 -50 -281z" />
    <glyph glyph-name="one" unicode="1" horiz-adv-x="522" 
d="M138 -11q-31 1 -63.5 1t-64.5 -4q-4 16 -4 35q0 40 22.5 64t57.5 24h54l84 378q-31 -31 -95 -31q-32 0 -57 30q-25 28 -29 68q148 26 369 125l32 -38l-97 -532h25q60 0 91 11q13 -22 13 -58t-26.5 -57.5t-70.5 -21.5q-89 0 -177 4z" />
    <glyph glyph-name="two" unicode="2" horiz-adv-x="561" 
d="M9 148l125 96l78 64q40 34 69 64q53 53 53 104q0 30 -19.5 46t-48 16t-49 -6.5t-38.5 -17.5q-38 -25 -56 -63q-25 1 -41.5 22t-16.5 51.5t19 59t53 50.5q74 46 175.5 46t158.5 -44t57 -119q0 -56 -27.5 -107t-100.5 -103l-108 -76l-65 -43l-83 -51l35 -4q24 -3 66 -3
t77 4.5t65 13.5q66 18 87 43q11 -8 19.5 -28.5t8.5 -45.5q0 -75 -57 -106t-174 -31q-61 0 -142 17.5t-114 27.5z" />
    <glyph glyph-name="three" unicode="3" horiz-adv-x="532" 
d="M341 361q132 -34 132 -163q0 -93 -79 -154q-84 -64 -222 -64q-82 0 -131 31.5t-49 83.5t39 84q20 -37 55.5 -54t81 -17t74.5 24t29 71q0 89 -122 89l17 90q146 24 146 96q0 29 -20 45t-58 16q-67 0 -126 -62q-19 5 -27 18.5t-8 41.5t20 54.5t55 46.5q75 42 176 42
q77 0 126 -40q51 -41 51 -102q0 -55 -44 -103t-116 -74z" />
    <glyph glyph-name="four" unicode="4" horiz-adv-x="561" 
d="M518 263q11 -21 11 -62t-30.5 -69.5t-97.5 -28.5h-6l-16 -103q-27 -20 -75 -20q-62 0 -82 38q-8 14 -8 26q0 14 2 30l7 38l-230 24v126l374 419v-1l1 1l139 -15q-47 -192 -87 -413h23q57 0 75 10zM100 260l151 -5q33 147 66 258z" />
    <glyph glyph-name="five" unicode="5" horiz-adv-x="519" 
d="M178 411q58 5 94 5t74 -13t66 -35q62 -49 62 -111.5t-22.5 -112.5t-61.5 -86q-83 -78 -209 -78q-91 0 -139 29t-48 84.5t35 85.5q42 -71 131 -71q54 0 84 25t30 73q0 96 -139 96q-53 0 -87 -4l94 362h235q79 0 104 35q26 -23 26 -74q0 -48 -38 -82t-92 -34h-171z" />
    <glyph glyph-name="six" unicode="6" horiz-adv-x="573" 
d="M513 514q-30 39 -101 39q-93 0 -144 -65q-36 -45 -52 -126q26 43 60.5 65.5t82.5 22.5t78.5 -17t49.5 -45q36 -52 36 -126t-26.5 -126t-67.5 -87t-91.5 -52.5t-98 -17.5t-86.5 15.5t-67 46.5q-61 66 -61 184q0 79 27 160t76 147t116 108t143 42t119 -24t43 -68
q0 -48 -36 -76zM206 248q-8 -28 -8 -67.5t17.5 -65t45.5 -25.5t44.5 19.5t25.5 46.5q16 48 16 92t-15.5 69t-36.5 25t-37.5 -12t-30 -33t-21.5 -49z" />
    <glyph glyph-name="seven" unicode="7" horiz-adv-x="502" 
d="M378 529q-91 -38 -170 -38t-120 27t-41 74q0 29 8.5 51t30.5 49q10 -20 146 -30q36 -2 68 -2h222l22 -84l-46 -72l-45 -77l-61 -113q-50 -95 -64.5 -138t-17.5 -60q-6 -25 -6 -46.5t11 -32.5q-20 -36 -79 -52q-19 -5 -42 -5t-43 9t-33 23q-25 30 -25 64.5t10 59t24 47.5z
" />
    <glyph glyph-name="eight" unicode="8" horiz-adv-x="566" 
d="M2 139q0 115 150 188q-66 54 -66 124q0 96 80 163q79 66 197 66q80 0 129 -38t49 -95q0 -87 -88 -147q-25 -17 -52 -29q65 -54 81 -77q27 -37 27 -82t-22.5 -89t-62.5 -75q-84 -68 -207 -68q-98 0 -157 44q-58 44 -58 115zM212 272q-51 -39 -51 -105q0 -35 16.5 -59
t47.5 -24t54.5 23t23.5 58q0 31 -21 48zM339 420q55 26 55 87q0 32 -17 53t-48 21t-51.5 -18t-20.5 -41q0 -39 23 -58z" />
    <glyph glyph-name="nine" unicode="9" horiz-adv-x="572" 
d="M60 148q30 -39 101 -39q93 0 145 65q35 45 51 126q-26 -43 -60.5 -65.5t-82.5 -22.5t-78.5 17t-49.5 45q-36 52 -36 126t26 126t68 87q82 70 191 70q95 0 153 -62q60 -66 60 -184q0 -79 -27 -160t-76 -147t-116 -108t-143 -42t-119 24t-43 68q0 48 36 76zM229.5 451.5
q-3.5 -27.5 -3.5 -54.5t15.5 -52t36.5 -25t37.5 12t30.5 33q29 46 29 101t-17.5 80.5t-45.5 25.5t-44.5 -19.5t-25.5 -46.5t-12.5 -54.5z" />
    <glyph glyph-name="colon" unicode=":" horiz-adv-x="300" 
d="M-1 59q0 38 29.5 59t71.5 21t67.5 -21t25.5 -59t-28.5 -58.5t-70.5 -20.5t-68.5 20.5t-26.5 58.5zM81 450q0 38 29.5 59t71.5 21t67.5 -21t25.5 -59t-28.5 -58.5t-70.5 -20.5t-68.5 20.5t-26.5 58.5z" />
    <glyph glyph-name="semicolon" unicode=";" horiz-adv-x="293" 
d="M-52 -129q77 83 77 187q0 32 -11 62q12 8 36 13.5t42 5.5q44 0 70 -23.5t26 -64.5t-16 -74t-43 -58q-58 -54 -138 -54q-16 0 -43 6zM73 450q0 38 29.5 59t71.5 21t67.5 -21t25.5 -59t-28.5 -58.5t-70.5 -20.5t-68.5 20.5t-26.5 58.5z" />
    <glyph glyph-name="less" unicode="&#x3c;" horiz-adv-x="343" 
d="M10 230l198 204q32 32 72 32q15 0 29.5 -9t20.5 -26l-37 -36l-147 -152l93 -125q12 -15 12 -31.5t-5 -30t-16 -24.5q-22 -25 -63 -27z" />
    <glyph glyph-name="equal" unicode="=" horiz-adv-x="553" 
d="M46 116q0 32 20.5 52.5t52.5 20.5h348q5 -17 5 -30q0 -30 -20 -50.5t-62 -20.5h-340q-4 13 -4 28zM46 292q0 32 20.5 52t52.5 20h348q5 -17 5 -30q0 -30 -20 -50t-62 -20h-340q-4 13 -4 28z" />
    <glyph glyph-name="greater" unicode="&#x3e;" horiz-adv-x="342" 
d="M-20 41l66 65l118 123l-66 89q-15 19 -27 35t-12 32t5 30t16 25q23 25 63 27l157 -225l-198 -204q-32 -32 -72 -32q-15 0 -29.5 9t-20.5 26z" />
    <glyph glyph-name="question" unicode="?" horiz-adv-x="524" 
d="M42 59q0 38 29.5 59t71.5 21t67.5 -21t25.5 -59t-28.5 -58.5t-70.5 -20.5t-68.5 20.5t-26.5 58.5zM244 479q-22 -6 -66 -6t-76 18t-32 49.5t15.5 56.5t48.5 43q69 40 188 40t166 -33t47 -89q0 -85 -85 -151q-25 -20 -56 -40l-191 -124q-39 -26 -39 -64q-29 0 -48 25
t-19 60q0 80 76 127l113 70q47 28 72 77q8 16 8 36q0 46 -46 46q-36 0 -61 -29q-22 -26 -23 -60t8 -52z" />
    <glyph glyph-name="at" unicode="@" horiz-adv-x="796" 
d="M533 159q0 -38 26 -38q40 0 71 58q29 57 29 125q0 117 -56 171.5t-173 54.5q-60 0 -115 -26t-97 -72.5t-67 -110.5t-25 -139q0 -109 64 -155.5t185 -46.5q49 0 95 15.5t71 33.5q5 -3 9.5 -12.5t4.5 -16.5q0 -38 -37 -59q-70 -39 -158 -39t-149.5 16t-104.5 48
q-91 67 -91 188q0 94 37 175.5t99 142t142.5 95t156.5 34.5t131 -17.5t95 -51.5q87 -71 87 -199q0 -118 -64 -195q-60 -72 -150 -72q-45 0 -69 15t-31 54q-16 -40 -44.5 -54.5t-68.5 -14.5q-128 0 -128 151q0 95 56 162q57 69 143 69q33 0 65 -13l108 13l-46 -270
q-1 -5 -1 -10v-9zM449 401q-12 10 -30 10t-34.5 -20t-28.5 -55q-26 -74 -26 -178q0 -19 8 -29t16 -10q20 0 35 20t21 52z" />
    <glyph glyph-name="A" unicode="A" 
d="M456 -20q-128 0 -140 182h-172q-20 -46 -34 -86l-26 -76h-140l315 660h215l42 -486q10 -105 50 -136q-29 -58 -110 -58zM175 235h138l-12 257v27l-71 -157z" />
    <glyph glyph-name="B" unicode="B" horiz-adv-x="637" 
d="M7 5l126 655q118 10 194 10t125 -6.5t82 -23.5q66 -32 66 -120q0 -51 -44 -94q-41 -39 -86 -48q48 -8 82 -44q36 -38 36 -97q0 -114 -85 -180.5t-252 -66.5q-115 0 -244 15zM229 63q9 -1 11 -1h9q82 0 117 54q26 42 26 119q0 41 -26.5 63t-86.5 24zM431 519q0 83 -80 83
h-9q-4 0 -10 -1l-40 -211h10q129 3 129 129z" />
    <glyph glyph-name="C" unicode="C" horiz-adv-x="631" 
d="M539 207q26 -19 26 -59.5t-17.5 -69t-51.5 -50.5q-73 -47 -200.5 -47t-197 66.5t-69.5 184.5q0 167 87 294q66 94 184 134q61 20 121 20t97 -8t65 -24q61 -35 61 -91q0 -51 -48 -89q-44 -34 -80 -34t-51 5q4 36 4 59.5t-1 40.5t-6 33q-10 37 -40.5 37t-61 -28.5
t-56.5 -76.5q-59 -109 -59 -238q0 -62 35 -97.5t110 -35.5q56 0 109 37q23 16 40 37z" />
    <glyph glyph-name="D" unicode="D" horiz-adv-x="700" 
d="M666 415q0 -426 -462 -426q-74 0 -196 18l112 591q8 40 13 63q152 11 219.5 11t129.5 -14t103 -45q81 -61 81 -198zM460 452q0 149 -107 149h-10q-5 0 -10 -1l-103 -537q4 -2 8 -2h8q37 0 75.5 23t68.5 70q70 109 70 298z" />
    <glyph glyph-name="E" unicode="E" horiz-adv-x="538" 
d="M444 154q19 -24 19 -63q0 -54 -40 -82.5t-103 -28.5q-36 0 -91 8q-108 17 -141 17t-46 -1.5t-34 -3.5l123 660h431q0 -61 -29.5 -93t-87.5 -32t-117 27l-31 -175h178q0 -53 -26 -82.5t-69.5 -29.5t-70.5 10t-30 13l-36 -189q24 -3 69 -3q77 0 132 48z" />
    <glyph glyph-name="F" unicode="F" horiz-adv-x="537" 
d="M472 530q-81 0 -140 27l-32 -162h193q0 -53 -26.5 -86.5t-74.5 -33.5q-52 0 -100 19q-10 4 -11 5l-57 -299h-218l127 660h446q0 -61 -28.5 -95.5t-78.5 -34.5z" />
    <glyph glyph-name="G" unicode="G" horiz-adv-x="656" 
d="M624 340q-72 -158 -72 -341q-27 -19 -66.5 -19t-64.5 18.5t-30 37.5q-25 -26 -65.5 -41t-83.5 -15t-80.5 14t-66.5 45q-64 68 -64 197q0 200 107 320q110 124 305 124q135 0 183 -70q15 -22 15 -48.5t-11.5 -49t-29.5 -40.5q-43 -40 -96 -40q-21 0 -41 7q4 30 4 65
t-2.5 51t-8.5 29q-13 27 -41.5 27t-60 -30.5t-56.5 -80.5q-55 -112 -55 -247q0 -62 24 -106q26 -48 72 -48q16 0 30.5 8t20.5 14l32 201z" />
    <glyph glyph-name="H" unicode="H" horiz-adv-x="707" 
d="M390 75q0 70 28 210h-148l-55 -285h-209l127 660h211l-58 -295h148l55 295h211q-14 -74 -32 -157l-34 -163q-38 -190 -38 -273q0 -34 11 -53q-50 -34 -108.5 -34t-83.5 28t-25 67z" />
    <glyph glyph-name="I" unicode="I" horiz-adv-x="358" 
d="M6 0l127 660h220l-129 -660h-218z" />
    <glyph glyph-name="J" unicode="J" horiz-adv-x="356" 
d="M-109 -138q51 6 83 72q33 67 63 221l97 505h217l-97 -505q-37 -196 -98 -273q-32 -40 -72.5 -56t-84.5 -16t-72.5 16t-35.5 36z" />
    <glyph glyph-name="K" unicode="K" horiz-adv-x="695" 
d="M8 0l114 608l11 52h214l-126 -660h-213zM627 59q-27 -79 -131 -79q-77 0 -130 92q-54 92 -64 242q110 201 186 284q73 79 149 79q41 0 70.5 -22t36.5 -57q-34 -14 -50 -25q-40 -30 -94 -97l-91 -109q-22 -26 -31 -38q15 -84 60 -167q43 -79 89 -103z" />
    <glyph glyph-name="L" unicode="L" horiz-adv-x="504" 
d="M435 154q19 -24 19 -70.5t-35.5 -75t-97.5 -28.5q-36 0 -92 8q-110 17 -141.5 17t-44.5 -1.5t-34 -3.5l121 660h219l-100 -550q13 -2 25 -2h25q84 0 136 46z" />
    <glyph glyph-name="M" unicode="M" horiz-adv-x="880" 
d="M-13 0l181 660h209l46 -377l186 377h175l18 -494q4 -98 52 -128q-11 -20 -43 -39t-74.5 -19t-67.5 12t-39 32q-25 36 -25 105v309l-197 -438h-124l-70 449l-112 -449h-115z" />
    <glyph glyph-name="N" unicode="N" horiz-adv-x="703" 
d="M10 0l120 660h215l156 -454l83 454l111 -1l-122 -659h-229l-144 437l-80 -437h-110z" />
    <glyph glyph-name="O" unicode="O" horiz-adv-x="710" 
d="M32 244q0 189 98 308q104 129 285 129q131 0 197 -63.5t66 -197.5q0 -204 -104 -323q-103 -117 -276 -117q-135 0 -200.5 67.5t-65.5 196.5zM295 451q-45 -180 -45 -322q0 -34 11.5 -56t42 -22t49.5 14.5t34 47.5q24 54 46.5 168.5t24.5 162t2 83.5t-11 59t-40.5 23
t-49.5 -18q-37 -34 -64 -140z" />
    <glyph glyph-name="P" unicode="P" horiz-adv-x="641" 
d="M408 667q245 0 245 -173q0 -95 -61 -152q-60 -57 -165 -57q-49 0 -87 28q-18 12 -30 28q73 0 111.5 44.5t38.5 131.5t-86 87h-24q-6 0 -11 -1l-115 -603h-217l123 655q107 10 169 11t109 1z" />
    <glyph glyph-name="Q" unicode="Q" horiz-adv-x="703" 
d="M135 60q35 -19 87 -19t95.5 31.5t74.5 89.5q64 123 64 321q0 126 -57 126q-30 0 -59 -33t-52 -86q-50 -121 -50 -263q0 -29 14 -46.5t39 -17.5q-4 -31 -31 -53t-61 -22q-81 0 -122.5 50.5t-41.5 142t28 163.5t77 124.5t116.5 82.5t147.5 30q268 0 268 -261
q0 -188 -90 -303q-90 -116 -246 -130q92 -20 185 -20q73 0 127 31q15 9 21 19q30 -27 30 -80.5t-47.5 -84.5t-140 -31t-199.5 43t-199 123z" />
    <glyph glyph-name="R" unicode="R" horiz-adv-x="681" 
d="M8 0l122 657q99 11 243.5 11t211.5 -42t67 -126.5t-43.5 -137.5t-118.5 -70q17 -83 56 -150q36 -63 78 -83q-15 -42 -45.5 -60.5t-74 -18.5t-77.5 25.5t-61 72.5q-57 102 -63 263h7q74 2 111 40.5t37 119.5q0 101 -85 105h-22q-9 0 -14 -1l-115 -605h-214z" />
    <glyph glyph-name="S" unicode="S" horiz-adv-x="590" 
d="M407 462q15 30 15 58t-3 43.5t-10 27.5q-15 26 -45 26q-37 0 -67 -27q-32 -28 -32 -72q0 -28 19.5 -49.5t49.5 -41.5t64 -40t64 -44q69 -55 69 -129q0 -50 -26.5 -92.5t-70.5 -73.5q-96 -68 -223 -68q-103 0 -156 33.5t-53 84.5q0 91 71 114q20 7 50.5 7t65.5 -13
q-16 -41 -16 -78q0 -80 57 -80q37 0 67.5 27t30.5 57.5t-19.5 52.5t-48.5 39.5t-62.5 34.5t-62.5 41q-68 55 -68 143q0 57 28 101.5t73 74.5q90 61 200.5 61t164 -33t53.5 -89q0 -49 -38 -80q-33 -26 -73 -26t-68 10z" />
    <glyph glyph-name="T" unicode="T" horiz-adv-x="518" 
d="M97 487q-34 26 -34 81.5t36.5 84.5t99.5 29q40 0 135 -14l68 -10q34 -4 69.5 -4t59.5 15q36 -32 36 -78t-41 -79q-42 -35 -96 -35q-26 0 -68 7q-49 -154 -49 -261t54 -163q-25 -45 -62 -62.5t-92.5 -17.5t-90 30.5t-34.5 93.5q0 73 40 193q40 119 100 210q-29 3 -59 3
q-62 0 -72 -23z" />
    <glyph glyph-name="U" unicode="U" horiz-adv-x="669" 
d="M36 148q0 39 10 89l81 423h221l-80 -426q-9 -47 -9 -81.5t14.5 -52.5t41.5 -18t44 7t31 24q27 34 44 121l81 426h151l-80 -425q-28 -142 -105 -199q-75 -56 -223 -56q-111 0 -170 48q-52 42 -52 120z" />
    <glyph glyph-name="V" unicode="V" horiz-adv-x="612" 
d="M42 620q29 60 109.5 60t118 -46.5t37.5 -153.5v-357l243 536h119l-311 -659h-234l-30 480q-3 53 -17.5 89t-34.5 51z" />
    <glyph glyph-name="W" unicode="W" horiz-adv-x="990" 
d="M42 620q14 28 44.5 43.5t72.5 15.5q66 0 105.5 -47.5t39.5 -151.5v-357l229 536h118l27 -506l-3 -29l238 535h137l-320 -659h-213l-20 304l-132 -304h-241l-30 480q-3 54 -17.5 89.5t-34.5 50.5z" />
    <glyph glyph-name="X" unicode="X" horiz-adv-x="605" 
d="M48 623q47 55 125 55q62 0 95 -24q33 -25 55 -86l42 -119l151 210h135l-245 -325l63 -178q14 -40 38.5 -69.5t46.5 -34.5q-20 -38 -54.5 -55t-85 -17t-86 33t-62.5 107l-29 80l-151 -200h-123l230 319l-72 201q-16 44 -32 66.5t-41 36.5z" />
    <glyph glyph-name="Y" unicode="Y" horiz-adv-x="596" 
d="M170 294q-29 271 -131 329q21 26 55 40.5t75 14.5t72 -14.5t51 -45.5q38 -59 38 -200v-72q60 176 120 252q61 78 137 78q30 0 50 -15.5t30 -38.5q-77 -34 -151 -132t-122 -235l-59 -255h-223z" />
    <glyph glyph-name="Z" unicode="Z" horiz-adv-x="577" 
d="M147 11q-28 4 -57.5 4t-44.5 -15q-23 17 -35 71q-4 15 -4 40q0 54 62 107l312 256q-129 21 -181 21t-100 -23q-27 44 -27 95t37.5 77t100.5 26q28 0 58 -4l60 -8l59 -9q29 -4 66.5 -4t79.5 10q40 -35 40 -93q0 -70 -48 -108l-340 -272q73 -20 194 -20q60 0 98 30
q17 -22 21.5 -40.5t4.5 -45t-9 -48t-28 -37.5q-38 -33 -122 -33q-62 0 -115.5 9.5t-81.5 13.5z" />
    <glyph glyph-name="bracketleft" unicode="[" horiz-adv-x="337" 
d="M-39 -200l188 1000h283q-12 -66 -96 -66h-50l-162 -867h30q45 0 64.5 -12t19.5 -40q0 -11 -1 -15h-276z" />
    <glyph glyph-name="backslash" unicode="\" horiz-adv-x="314" 
d="M178.5 -178.5q-20.5 -21.5 -71 -21.5t-54.5 4l46 880q6 74 21.5 91.5t36.5 22.5t54 5t39 -3l-46 -905q-5 -52 -25.5 -73.5z" />
    <glyph glyph-name="bracketright" unicode="]" horiz-adv-x="335" 
d="M-103 -200q6 34 28 50t64 16h50l162 867h-40q-43 0 -59.5 12t-16.5 42q0 9 1 13h278l-188 -1000h-279z" />
    <glyph glyph-name="asciicircum" unicode="^" horiz-adv-x="510" 
d="M-58 320q66 28 124.5 115.5t103.5 224.5h165q2 -127 34 -218.5t89 -128.5q-18 -21 -78 -32q-17 -3 -41 -3t-45.5 12t-37.5 41q-28 50 -46 205q-48 -139 -94 -198q-48 -61 -111 -61q-25 0 -41.5 11.5t-21.5 31.5z" />
    <glyph glyph-name="underscore" unicode="_" horiz-adv-x="686" 
d="M18 -113q0 33 21 53.5t53 20.5h421q5 -17 5 -30q0 -30 -20.5 -51t-62.5 -21h-413q-4 13 -4 28z" />
    <glyph glyph-name="grave" unicode="`" horiz-adv-x="310" 
d="M-34 625q-12 18 -12 41q0 53 36 67l236 -146l-21 -48l-123 23q-84 15 -116 63z" />
    <glyph glyph-name="a" unicode="a" horiz-adv-x="628" 
d="M26.5 97q-10.5 41 -10.5 108t23 128t65 105q86 92 228 92q51 0 88 -17l171 17l-74 -390q-3 -12 -3 -34t13.5 -36t33.5 -16q-10 -34 -46.5 -54t-77.5 -20t-68.5 15.5t-35.5 41.5q-16 -25 -50 -41t-79.5 -16t-82.5 12t-60.5 38t-34 67zM250 387.5q-10 -30.5 -26.5 -112
t-16.5 -139.5t9 -75t25 -17q32 0 55.5 30.5t32.5 84.5l53 293q-21 18 -45.5 18t-39 -8t-26 -26t-21.5 -48.5z" />
    <glyph glyph-name="b" unicode="b" horiz-adv-x="614" 
d="M4 48l124 652l203 20l-31 -153q-11 -47 -25 -80q22 28 70 39q14 4 31 4q93 0 144 -56.5t51 -165.5q0 -142 -81 -231q-87 -97 -245 -97q-109 0 -191 36q-29 13 -50 32zM205 57q21 -18 47 -18t41 10t26 30q30 54 54 219q7 47 7 94t-10.5 62t-30.5 15q-61 0 -81 -119z" />
    <glyph glyph-name="c" unicode="c" horiz-adv-x="518" 
d="M508 416q0 -42 -35 -68t-92 -26q-24 0 -38 7q11 26 14.5 58.5t3.5 41.5q0 42 -29 42q-20 0 -42.5 -25t-41.5 -64q-42 -90 -42 -181q0 -50 19 -72.5t61 -22.5q58 0 104 48q13 15 20 32q38 -20 38 -75q0 -56 -62 -93q-64 -38 -166 -38q-203 0 -203 215q0 157 89 247
q86 88 244 88t158 -114z" />
    <glyph glyph-name="d" unicode="d" horiz-adv-x="625" 
d="M332 530q36 0 64 -8q1 4 3 15l5 31q4 20 10 53l16 79l199 20l-111 -580q-1 -6 -1 -16v-16q0 -22 11 -38.5t29 -16.5q-20 -47 -81 -67q-21 -6 -50.5 -6t-56.5 15.5t-35 41.5q-16 -26 -48 -41.5t-78.5 -15.5t-85 12t-62.5 38q-44 51 -44 167q0 150 88 241q88 92 228 92z
M268 430q-20 -40 -40.5 -139t-20.5 -188q0 -61 36 -61q32 0 54.5 32t31.5 85l54 293q-21 18 -58 18t-57 -40z" />
    <glyph glyph-name="e" unicode="e" horiz-adv-x="532" 
d="M422 169q25 -17 25 -54.5t-19 -61.5t-50 -40q-64 -33 -133 -33t-109.5 15t-67.5 43q-53 53 -53 150q0 151 82 243q88 99 241 99q95 0 142 -40q35 -30 35 -79q0 -176 -304 -176q-4 -26 -4 -48q0 -46 20.5 -63.5t58.5 -17.5t78.5 17.5t57.5 45.5zM218 278q71 0 112 44
q41 42 41 109q0 23 -8.5 35.5t-25.5 12.5t-31.5 -6.5t-29.5 -28.5q-37 -50 -58 -166z" />
    <glyph glyph-name="f" unicode="f" horiz-adv-x="382" 
d="M407 580q14 24 14 50q0 46 -28 46q-43 0 -61 -88l-15 -78h91l-6 -45h-94l-90 -465l-202 -20l96 485h-71l9 45h70l21 79q18 73 95 107q56 24 150 24t136 -24t42 -56t-25 -52t-53 -20q-55 0 -79 12z" />
    <glyph glyph-name="g" unicode="g" horiz-adv-x="599" 
d="M173.5 498q51.5 32 114.5 32t93 -20l196 20l-68 -384q-35 -196 -109 -273q-71 -73 -209 -73q-105 0 -165 33t-60 88q0 41 31 64.5t79 23.5q42 0 74 -19q19 -10 28 -24q-23 -20 -23 -53q0 -43 40 -43q67 0 105 158q11 43 20 86q-45 -55 -147 -55q-71 0 -112 34t-41 114
q0 50 17 106.5t51 104.5t85.5 80zM218 204q0 -68 35 -68q24 0 47 26q18 21 25 52l51 257q-5 1 -10 3q-10 4 -23 4q-61 0 -97 -100q-28 -78 -28 -174z" />
    <glyph glyph-name="h" unicode="h" horiz-adv-x="629" 
d="M520 111q0 -44 45 -57q-11 -37 -54 -57q-36 -17 -75.5 -17t-60 10.5t-31.5 27.5q-18 26 -18 75q0 29 16 109l14 76q17 87 17 119q0 56 -31 56q-39 0 -64 -57q-10 -22 -17 -55l-68 -341l-201 -20l141 720l201 20l-8 -40q-28 -154 -52 -206q56 56 159 56q109 0 129 -72
q7 -23 7 -43t-1.5 -35.5t-6.5 -43.5l-13 -72l-23 -113q-5 -23 -5 -40z" />
    <glyph glyph-name="i" unicode="i" horiz-adv-x="325" 
d="M257 55q-31 -75 -130 -75q-51 0 -83 35q-27 31 -27 62q0 81 37 239l37 194l203 20l-61 -316q-17 -74 -17 -100q0 -57 41 -59zM109 649q0 39 32.5 60t79.5 21t75.5 -21t28.5 -60t-31.5 -59t-78.5 -20t-76.5 20t-29.5 59z" />
    <glyph glyph-name="j" unicode="j" horiz-adv-x="317" 
d="M-122 -119q52 4 90 69q29 50 48 142l81 418l201 20l-85 -438q-33 -167 -84 -222q-27 -30 -62 -40t-75 -10q-84 0 -114 61zM113 649q0 39 32.5 60t79.5 21t75.5 -21t28.5 -60t-31.5 -59t-78.5 -20t-76.5 20t-29.5 59z" />
    <glyph glyph-name="k" unicode="k" horiz-adv-x="604" 
d="M275 474q54 56 168 56q63 0 97.5 -33.5t34.5 -95t-34.5 -105t-98.5 -61.5q5 -20 12 -41l14 -40q19 -51 34 -69t35 -24q-11 -41 -51 -63q-32 -18 -76 -18q-129 0 -146 199q-3 28 -3 56q50 14 85 61t35 102t-39 55q-28 0 -50 -31t-32 -84l-66 -338l-202 -20l140 720l201 20
l-23 -119q-15 -84 -35 -127z" />
    <glyph glyph-name="l" unicode="l" horiz-adv-x="324" 
d="M256 55q-31 -75 -130 -75q-50 0 -82 35q-26 29 -26 62q0 75 35 239l73 384l203 20l-97 -506q-17 -74 -17 -100q0 -57 41 -59z" />
    <glyph glyph-name="m" unicode="m" horiz-adv-x="921" 
d="M737 -20q-121 0 -121 94q0 41 17.5 120.5t23.5 111.5q14 73 14 96q0 51 -38 51q-25 0 -49 -34.5t-35 -103.5l-62 -315l-195 -20l54 272q9 45 17 96t8 59q0 46 -34 46q-23 0 -48 -34t-39 -104l-61 -315l-197 -20l105 530l163 20l-17 -101q26 54 74 77.5t123 23.5
q43 0 71 -21t37 -55q17 35 60.5 55.5t97 20.5t80 -11.5t42.5 -30.5q27 -35 27 -99q0 -63 -27 -194q-14 -64 -14 -87.5t13.5 -37.5t33.5 -16q-10 -34 -44.5 -54t-79.5 -20z" />
    <glyph glyph-name="n" unicode="n" horiz-adv-x="627" 
d="M440 -20q-121 0 -121 94q1 26 9 70l18 92q27 130 27 159q0 58 -34 58q-57 0 -87 -149l-59 -304l-201 -20l104 531l164 19l-16 -98q47 98 191 98q70 0 99.5 -29.5t29.5 -95.5q0 -62 -32 -207q-15 -65 -15 -89.5t13.5 -38.5t33.5 -16q-10 -34 -44.5 -54t-79.5 -20z" />
    <glyph glyph-name="o" unicode="o" horiz-adv-x="591" 
d="M235 -20q-220 0 -220 207q0 147 81 242q86 101 235 101q108 0 163 -50t55 -155q0 -160 -86 -253q-84 -92 -228 -92zM239.5 347.5q-9.5 -40.5 -21.5 -104.5t-12 -143q0 -26 8.5 -43t31.5 -17t37.5 11t25.5 37q20 46 36 131.5t17.5 122.5t1.5 64.5t-8 45.5t-30.5 18
t-37.5 -14t-27 -41t-21.5 -67.5z" />
    <glyph glyph-name="p" unicode="p" horiz-adv-x="614" 
d="M383.5 3q-57.5 -23 -114.5 -23t-77 10l-31 -170l-203 -20l138 710l163 17l-13 -69q42 71 129 71q98 0 150 -63q46 -57 46 -144t-23 -149t-65 -104.5t-99.5 -65.5zM204 56q21 -18 47 -18t41 10t26 30q30 54 54 218q7 48 7 95t-10.5 62t-30.5 15q-61 0 -81 -119z" />
    <glyph glyph-name="q" unicode="q" horiz-adv-x="617" 
d="M301 3q-33 -23 -85.5 -23t-91 12t-62.5 38q-46 50 -46 167q0 148 88 241q86 92 228 92q51 0 88 -17l177 17l-136 -710l-202 -20zM242 42q31 0 54 31.5t33 85.5l53 293q-21 18 -45.5 18t-39 -8t-25.5 -26q-29 -47 -52 -183q-13 -81 -13 -146t35 -65z" />
    <glyph glyph-name="r" unicode="r" horiz-adv-x="521" 
d="M330 281q36 64 36 129q0 43 -31 43q-24 0 -49 -41q-26 -41 -34 -94l-52 -318l-207 -20l102 530l165 20l-18 -101q49 101 159 101q58 0 89.5 -30t31.5 -91.5t-40.5 -100.5t-109.5 -39q-30 0 -42 12z" />
    <glyph glyph-name="s" unicode="s" horiz-adv-x="486" 
d="M316 351q14 37 14 69q0 59 -48 59q-25 0 -45.5 -22.5t-20.5 -50.5q0 -20 16 -36q23 -22 82 -58t81.5 -65.5t22.5 -70t-19.5 -77.5t-54.5 -63q-75 -56 -195 -56q-65 0 -115 34q-50 33 -50 72t28.5 62t70.5 23t68 -16q-13 -33 -13 -55q0 -66 56 -66q24 0 40 15t16 41
q0 51 -86 105q-70 46 -86 64q-27 32 -27 72t19 78t54 65q73 56 200 56q65 0 103.5 -26t38.5 -70t-26.5 -69t-74.5 -25q-33 0 -49 11z" />
    <glyph glyph-name="t" unicode="t" horiz-adv-x="361" 
d="M33 100q0 27 14 95l53 270h-59l4 30q120 36 236 124h48l-24 -109h78l-9 -45h-77l-51 -270q-13 -62 -13 -83q0 -48 42 -58q-10 -34 -46 -54t-87 -20t-80 32t-29 88z" />
    <glyph glyph-name="u" unicode="u" horiz-adv-x="635" 
d="M338 42q-48 -62 -167 -62q-62 0 -107 37.5t-45 91.5q0 30 3 45l67 356l203 20l-73 -386q-4 -22 -4 -35q0 -58 35 -58q39 0 67 53q9 17 13 39l71 367l197 20l-74 -390q-3 -15 -3 -31t9 -33.5t38 -21.5q-6 -24 -27 -40q-44 -34 -91.5 -34t-75.5 17t-36 45z" />
    <glyph glyph-name="v" unicode="v" horiz-adv-x="569" 
d="M380 493q33 37 90 37q35 0 62 -19t27 -54.5t-11 -73.5t-28 -77q-34 -76 -81 -139q-66 -91 -129.5 -139t-132.5 -48q-56 0 -90 13q-6 210 -13.5 285t-13.5 116q-10 80 -40 99q23 20 45.5 28.5t69 8.5t79.5 -36.5t39.5 -101t6.5 -142.5t-6 -172q31 22 64 89q45 93 61 205
q5 34 5 70t-4 51z" />
    <glyph glyph-name="w" unicode="w" horiz-adv-x="890" 
d="M633.5 28q-63.5 -48 -129 -48t-88.5 13v220q-57 -152 -159 -211q-37 -22 -72 -22q-67 0 -96 13q-7 229 -13 292.5t-11 102.5q-10 78 -44 110q43 32 103 32q116 0 132 -144q4 -34 4 -70q0 -54 -12 -242q24 11 49.5 50.5t46.5 93.5q47 125 47 233q0 17 -4.5 35t-9.5 23
q35 21 88.5 21t79 -36.5t32.5 -103.5q8 -85 8 -136q0 -71 -7 -176q50 36 91 154t41 202q0 37 -6 59q33 37 90 37q35 0 60.5 -19t25.5 -54.5t-10.5 -73.5t-27.5 -77q-33 -78 -79 -139q-66 -91 -129.5 -139z" />
    <glyph glyph-name="x" unicode="x" horiz-adv-x="554" 
d="M150 -3q-32 -17 -76 -17t-68 22.5t-24 66t30.5 86t76 66.5t77.5 38l-63 145q-17 37 -49 37l-8 -1h-3q6 35 47 62q41 28 88 28q76 0 111 -76l8 -16l43 -106q27 12 38.5 34.5t11.5 67t-24 72.5q38 24 88 24q90 0 90 -87q0 -95 -119 -150l-60 -28l54 -139q16 -42 45 -60
q12 -8 26 -9q-30 -49 -95 -71q-20 -6 -47 -6t-58 18.5t-42 47.5l-55 143q-56 -25 -56 -116q0 -42 13 -76z" />
    <glyph glyph-name="y" unicode="y" horiz-adv-x="618" 
d="M335 113q-52 -54 -147 -54q-119 0 -144 87q-8 26 -8 55t6 59l47 250l203 20l-55 -291q-2 -13 -5 -27t-3 -28.5t5 -24t12 -15.5q12 -8 33.5 -8t40 26t27.5 71l55 277l197 20l-75 -393q-37 -192 -113 -268q-39 -39 -89.5 -54.5t-115.5 -15.5q-105 0 -165 33t-60 88
q0 41 31 64.5t79 23.5q42 0 74 -18q19 -11 28 -25q-23 -20 -23 -53q0 -44 40 -44q66 0 104 152q11 45 21 93z" />
    <glyph glyph-name="z" unicode="z" horiz-adv-x="504" 
d="M137.5 4.5q-24.5 4.5 -53 4.5t-56.5 -10q-15 9 -24.5 27t-9.5 46q0 59 60 104l254 183q-71 20 -135.5 20t-87.5 -44q-34 40 -34 103q0 42 30.5 69.5t94.5 27.5q36 0 68.5 -4.5t61.5 -8.5l54 -8q26 -4 52.5 -4t46.5 11q26 -24 26 -57q0 -52 -64 -106l-253 -189
q78 -23 118 -23q84 0 120 40q28 -32 28 -87.5t-36 -87t-101 -31.5q-40 0 -87.5 10t-72 14.5z" />
    <glyph glyph-name="braceleft" unicode="{" horiz-adv-x="368" 
d="M-3 275l14 72q95 0 113 98l43 237q11 61 52.5 89.5t116.5 28.5q68 0 111 -8l-11 -58h-30q-43 0 -66 -22t-31 -70l-40 -223q-9 -49 -37 -72.5t-85 -30.5q48 -6 63 -18.5t19 -24.5t4 -29t-3 -35l-45 -228q-5 -23 -5 -43q0 -71 64 -71h30l-12 -59q-54 -8 -112 -8
q-130 0 -130 90q0 13 4 33l50 255q3 18 3 33q-1 64 -80 64z" />
    <glyph glyph-name="bar" unicode="|" horiz-adv-x="265" 
d="M-42 -200l195 1000h142l-191 -1000h-146z" />
    <glyph glyph-name="braceright" unicode="}" horiz-adv-x="368" 
d="M-90 -192l11 58h30q43 0 66 22t32 70l46 246q9 49 36.5 72.5t84.5 30.5q-48 6 -63 18.5t-19 24.5t-4 29t3 35l39 205q5 23 5 43q0 71 -64 71h-30l12 59q54 8 96 8t65 -5t40 -16q37 -24 37 -72v-14q0 -8 -2 -16l-42 -232q-3 -18 -3 -33q1 -64 80 -64l-14 -72
q-95 0 -113 -98l-49 -260q-22 -118 -169 -118q-68 0 -111 8z" />
    <glyph glyph-name="asciitilde" unicode="~" horiz-adv-x="504" 
d="M44 172q-22 28 -22 56.5t29 48t82 19.5q24 0 55 -6l64 -12l59 -13q28 -6 47 -6t40 8.5t29 23.5q21 -24 21 -54t-28.5 -51t-79.5 -21q-28 0 -86 12q-111 23 -133.5 23t-45 -7.5t-31.5 -20.5z" />
    <glyph glyph-name="uni00A0" unicode="&#xa0;" horiz-adv-x="206" 
 />
    <glyph glyph-name="exclamdown" unicode="&#xa1;" horiz-adv-x="285" 
d="M-11 -143q-23 28 -23 69.5t16 88t35.5 93.5t36 95.5t17.5 99.5q23 26 63 26t61.5 -18.5t21.5 -48.5q0 -7 -2 -17l-78 -402q-37 -14 -81 -14t-67 28zM77 450q0 38 29.5 59t71.5 21t67.5 -21t25.5 -59t-28.5 -58.5t-70.5 -20.5t-68.5 20.5t-26.5 58.5z" />
    <glyph glyph-name="cent" unicode="&#xa2;" horiz-adv-x="523" 
d="M421 251q38 -19 38 -75q0 -51 -49 -85q-44 -31 -114 -42l-4 -23q-8 -44 -23 -59.5t-44 -15.5t-47 5l18 91q-89 12 -129 69.5t-40 137t20 137.5t56 100q72 85 200 101l4 20q7 43 22 59t42 16t47 -5l-18 -90q119 -13 119 -111q0 -41 -33.5 -67.5t-93.5 -26.5q-22 0 -38 7
q22 55 22 99t-28.5 44t-52 -32t-41 -76.5t-27.5 -90t-10 -81.5t17 -61t63 -25q37 0 63 17q47 28 61 63z" />
    <glyph glyph-name="sterling" unicode="&#xa3;" horiz-adv-x="592" 
d="M26 -1q-27 21 -26.5 50.5t9 44.5t22.5 26l13 10q42 28 47 57l28 155h-76q-5 13 -5 31.5t18.5 31t48.5 12.5h28l15 84q15 83 88 131t186 48q74 0 123 -28q50 -30 50 -70q0 -93 -110 -93q-30 0 -51 13q17 31 17 61q0 53 -34 53q-23 0 -44.5 -32.5t-30.5 -82.5l-14 -84h142
q6 -15 6 -32t-18.5 -30t-57.5 -13h-85l-11 -64q-11 -68 -51 -100t-94 -44l135 -8q50 -3 70 -4.5t32 -1.5h25q38 0 80 34q19 -38 19 -62t-11 -47t-31 -41q-40 -36 -103 -36q-45 0 -120 14q-141 28 -174.5 28t-54.5 -11z" />
    <glyph glyph-name="currency" unicode="&#xa4;" horiz-adv-x="585" 
d="M41 161l86 77q-13 30 -13 83.5t33 103.5l-89 80l54 74l96 -95q43 26 92.5 26t82.5 -15l88 86l64 -65l-88 -79q18 -35 18 -86t-25 -96l94 -83l-59 -70l-92 90q-48 -31 -105.5 -31t-90.5 16l-82 -81zM214 327q0 -39 17 -56.5t54 -17.5t58.5 24t21.5 62.5t-19.5 58
t-53.5 19.5t-56 -25.5t-22 -64.5z" />
    <glyph glyph-name="yen" unicode="&#xa5;" horiz-adv-x="668" 
d="M197 342q-33 230 -125 281q21 26 55 40.5t75 14.5t72 -14.5t51 -45.5q38 -59 38 -200v-72q60 176 120 252q61 78 137 78q26 -1 48 -16t32 -38q-66 -29 -128 -102t-110 -178h74q6 -15 6 -32t-17.5 -30t-54.5 -13h-39l-4 -12l-11 -46h94q6 -15 6 -32t-17.5 -30t-54.5 -13
h-45l-31 -134h-223l26 134h-88q-5 13 -5 31.5t18.5 31t48.5 12.5h41l11 58h-88q-5 13 -5 31.5t18.5 31t48.5 12.5h26z" />
    <glyph glyph-name="brokenbar" unicode="&#xa6;" horiz-adv-x="271" 
d="M0 0l53 272h143l-52 -272h-144zM75 388l53 272h143l-52 -272h-144z" />
    <glyph glyph-name="section" unicode="&#xa7;" horiz-adv-x="466" 
d="M335 498q15 49 15 69q0 61 -44 61q-23 0 -42 -24q-19 -22 -19 -51q0 -21 15 -36q24 -25 75.5 -61t72 -64.5t20.5 -61t-11 -61t-31 -54.5q-43 -56 -107 -83q38 -31 51 -53.5t13 -51.5q0 -100 -58.5 -153.5t-167.5 -53.5q-64 0 -106 28q-42 29 -42 72.5t24 68t59.5 24.5
t52.5 -11q-14 -32 -14 -69q0 -61 44 -61q23 0 43 24q18 22 18 51q0 19 -14 34.5t-32 29.5l-47 34q-50 34 -70.5 65t-20.5 71q0 65 36 111t111 77q-36 29 -49 52t-13 52q0 100 58.5 153.5t168.5 53.5q64 0 105.5 -28t41.5 -72t-24.5 -68.5t-67.5 -24.5q-29 0 -44 11zM152 283
q-5 -12 -5 -23t2.5 -19t11.5 -18q15 -17 74 -58q22 6 39.5 29t17.5 40t-2 24q-5 15 -38 40l-47 36q-23 -6 -35.5 -22.5t-17.5 -28.5z" />
    <glyph glyph-name="dieresis" unicode="&#xa8;" horiz-adv-x="454" 
d="M-22 606q-26 17 -26 48.5t28.5 48.5t70.5 17t67 -17t25 -48.5t-28 -48.5t-69.5 -17t-67.5 17zM211 606q-26 17 -26 48.5t28.5 48.5t70.5 17t67 -17t25 -48.5t-28 -48.5t-69.5 -17t-67.5 17z" />
    <glyph glyph-name="copyright" unicode="&#xa9;" horiz-adv-x="776" 
d="M16 179q0 90 34 169t93 138t137.5 93.5t167.5 34.5q138 0 214 -67.5t76 -189.5q0 -93 -33 -172.5t-91.5 -137t-138.5 -90.5t-174 -33q-141 0 -213 64.5t-72 190.5zM119 199q0 -107 51.5 -156.5t162.5 -49.5q132 0 217 94.5t85 241.5q0 103 -56 158.5t-160 55.5
q-64 0 -119 -26t-95 -73q-86 -99 -86 -245zM431 327q13 31 13 65.5t-20 34.5q-28 0 -56 -65q-28 -67 -28 -116t12.5 -65t38 -16t45.5 15t31 41q25 -13 25 -54q0 -38 -40 -65t-99 -27q-141 0 -141 151q0 112 60 178q59 65 164.5 65t105.5 -80q0 -29 -23.5 -48t-52 -19
t-35.5 5z" />
    <glyph glyph-name="ordfeminine" unicode="&#xaa;" horiz-adv-x="495" 
d="M57 158q-3 12 -3 30t15 33t38 15h297q3 -14 3 -31t-14.5 -32t-44.5 -15h-291zM198.5 657q40.5 17 81.5 17t75 -14l124 14l-53 -280q-2 -6 -2 -9v-6q0 -21 8.5 -33.5t21.5 -12.5q-7 -21 -33.5 -37t-54 -16t-47 11.5t-25.5 29.5q-12 -17 -38.5 -29t-52.5 -12
q-66 0 -100.5 40t-34.5 104.5t16 109t45 75.5t69.5 48zM213 472q-8 -48 -8 -99t27 -51q19 0 35 24.5t23 62.5l41 216q-14 11 -31.5 11t-35 -21.5t-30.5 -58t-21 -84.5z" />
    <glyph glyph-name="guillemotleft" unicode="&#xab;" horiz-adv-x="540" 
d="M24 317l167 193h120l-123 -193l48 -191h-117zM253 317l167 193h120l-123 -193l48 -191h-117z" />
    <glyph glyph-name="logicalnot" unicode="&#xac;" horiz-adv-x="543" 
d="M12 218q0 33 21 53.5t53 20.5h394l-55 -291q-8 -4 -44.5 -4t-49.5 12.5t-13 30.5t2 28l3 24l18 98h-325q-4 13 -4 28z" />
    <glyph glyph-name="registered" unicode="&#xae;" horiz-adv-x="776" 
d="M27 244q0 90 34 169t93 138t137.5 93.5t167.5 34.5q138 0 214 -67.5t76 -189.5q0 -93 -33 -172.5t-91.5 -137t-138.5 -90.5t-174 -33q-141 0 -213 64.5t-72 190.5zM128 264q0 -106 52 -156t164 -50q132 0 218 94t86 242q0 103 -56.5 158.5t-161.5 55.5
q-64 0 -119.5 -26.5t-96.5 -72.5q-86 -98 -86 -245zM214 151l70 375q34 4 148 4q132 0 132 -93q0 -45 -26.5 -77t-71.5 -42q9 -51 26.5 -76.5t46.5 -33.5q-5 -31 -27 -48.5t-55 -17.5q-84 0 -90 202h10q82 5 82 89q0 55 -50 55q-6 0 -26 -2l-60 -335h-109z" />
    <glyph glyph-name="macron" unicode="&#xaf;" horiz-adv-x="355" 
d="M-34 618q-3 10 -2 33.5t19.5 41t47.5 17.5h241q4 -12 4 -34t-19 -40t-57 -18h-234z" />
    <glyph glyph-name="degree" unicode="&#xb0;" horiz-adv-x="390" 
d="M96.5 402.5q-36.5 32.5 -36.5 85.5t17 88t45 59q59 49 143 49q62 0 97.5 -32.5t35.5 -85t-16.5 -87.5t-44.5 -59q-57 -50 -142 -50q-62 0 -98.5 32.5zM171 544q-7 -22 -7 -48.5t11 -46t30 -19.5t35.5 9.5t29.5 25.5q28 36 28 74.5t-12.5 59t-32.5 20.5t-35.5 -10
t-27.5 -26.5t-19 -38.5z" />
    <glyph glyph-name="plusminus" unicode="&#xb1;" horiz-adv-x="459" 
d="M-8 0q-4 15 -4 36.5t18 38.5t51 17h311q5 -18 5 -31q0 -61 -78 -61h-303zM28 271q0 32 20.5 52.5t52.5 20.5h77l11 55q7 31 28.5 49t48.5 18t45 -7l-21 -115h123l3 -16q2 -7 2 -14q0 -67 -79 -67h-69l-13 -68q-12 -61 -75 -61q-24 0 -45 7l23 122h-128q-4 13 -4 24z" />
    <glyph glyph-name="uni00B2" unicode="&#xb2;" horiz-adv-x="355" 
d="M29.1289 251.334l71.2275 54.7031l44.4463 36.4688q22.793 19.374 39.3184 36.4688q30.2002 30.2012 30.2002 59.2617q0 17.0947 -11.1113 26.2119q-11.1123 9.11719 -27.3516 9.11719q-16.2402 0 -27.9219 -3.7041q-11.6807 -3.70312 -21.9385 -9.97168
q-21.6523 -14.2451 -31.9102 -35.8994q-14.2451 0.570312 -23.6475 12.5371q-9.40137 11.9658 -9.40137 29.3457q0 17.3789 10.8262 33.6191t30.2012 28.7764q42.166 26.2119 100.004 26.2119q57.8369 0 90.3164 -25.0723q32.4805 -25.0723 32.4805 -67.8086
q0 -31.9102 -15.6699 -60.9717t-57.2676 -58.6924l-61.541 -43.3066l-37.0391 -24.502l-47.2949 -29.0605l19.9434 -2.2793q13.6758 -1.70996 37.6094 -1.70996q23.9316 0 43.876 2.56445q19.9443 2.56348 37.0381 7.69238q37.6094 10.2568 49.5752 24.502
q6.26855 -4.55859 11.1113 -16.2393q4.84375 -11.6816 4.84375 -25.9268q0 -42.7373 -32.4795 -60.4023q-32.4805 -17.6641 -99.1504 -17.6641q-34.7588 0 -80.9141 9.97168q-46.1562 9.97168 -64.9609 15.6709z" />
    <glyph glyph-name="uni00B3" unicode="&#xb3;" horiz-adv-x="335" 
d="M220.143 373.279q75.5391 -19.4277 75.5391 -93.1396q0 -53.1416 -45.209 -87.9971q-48.0703 -36.5703 -127.043 -36.5703q-46.9258 0 -74.9668 17.999t-28.041 47.7129q0 29.7129 22.3184 47.998q11.4453 -21.1416 31.7607 -30.8555t46.3535 -9.71387t42.6338 13.7129
q16.5957 13.7148 16.5957 40.5703q0 50.8555 -69.8164 50.8555l9.72852 51.4277q83.5508 13.7139 83.5508 54.8555q0 16.5703 -11.4453 25.7129t-33.1914 9.14258q-38.3418 0 -72.1055 -35.4268q-10.873 2.85645 -15.4512 10.5703q-4.57812 7.71484 -4.57812 23.7139
q0 16 11.4453 31.1416q11.4453 15.1426 31.4746 26.5713q42.9199 23.999 100.719 23.999q44.0645 0 72.1055 -22.8564q29.1855 -23.4277 29.1855 -58.2842q0 -31.4277 -25.1797 -58.8555t-66.3828 -42.2842z" />
    <glyph glyph-name="acute" unicode="&#xb4;" horiz-adv-x="310" 
d="M200 736q36 -14 36 -66q0 -44 -42 -72q-35 -24 -86 -33l-123 -23l-21 48z" />
    <glyph glyph-name="mu" unicode="&#xb5;" horiz-adv-x="649" 
d="M352 42q-50 -62 -145 -62l-28 -160l-201 -20l119 625q0 40 -40 40q9 33 61 55q25 10 58 10t52 -6.5t34 -17.5q31 -25 31 -67v-7q0 -3 -1 -7l-60 -317q-1 -5 -1 -14q0 -46 40 -46q29 0 48.5 35t28.5 83l64 344l200 20l-75 -390q-2 -8 -2 -16v-14q0 -42 27 -52q7 -3 12 -3
q0 -22 -38 -47q-41 -28 -83 -28q-56 0 -86 33q-11 12 -15 29z" />
    <glyph glyph-name="mu" unicode="&#x3bc;" horiz-adv-x="649" 
d="M352 42q-50 -62 -145 -62l-28 -160l-201 -20l119 625q0 40 -40 40q9 33 61 55q25 10 58 10t52 -6.5t34 -17.5q31 -25 31 -67v-7q0 -3 -1 -7l-60 -317q-1 -5 -1 -14q0 -46 40 -46q29 0 48.5 35t28.5 83l64 344l200 20l-75 -390q-2 -8 -2 -16v-14q0 -42 27 -52q7 -3 12 -3
q0 -22 -38 -47q-41 -28 -83 -28q-56 0 -86 33q-11 12 -15 29z" />
    <glyph glyph-name="paragraph" unicode="&#xb6;" horiz-adv-x="727" 
d="M293 268q-36 -15 -100.5 -15t-102 39t-37.5 104t22.5 116.5t62.5 87.5q85 75 228 75q58 0 101 -15l-133 -714q-19 -76 -62.5 -111t-109.5 -35q-130 0 -130 76v6q0 3 3 12q33 -18 93 -18q39 0 69 28.5t39 75.5zM739 601.5q-19 -18.5 -52.5 -18.5t-51.5 5l-108 -588
l-110 -20l134 680h113q65 0 99 4q-5 -44 -24 -62.5z" />
    <glyph glyph-name="periodcentered" unicode="&#xb7;" horiz-adv-x="268" 
d="M46 177q-25 21 -25 57.5t28 58.5t72 22t69 -21.5t25 -58t-27 -58t-72 -21.5t-70 21z" />
    <glyph glyph-name="cedilla" unicode="&#xb8;" horiz-adv-x="480" 
d="M180 -59q16 2 53.5 2t68.5 -23t31 -57q0 -54 -41.5 -87.5t-109.5 -33.5q-45 0 -71 14t-26 38t18 38q19 -32 67 -32q29 0 44.5 11.5t15.5 31.5q0 47 -76 47q-20 0 -42 -2l37 123h52z" />
    <glyph glyph-name="uni00B9" unicode="&#xb9;" horiz-adv-x="337" 
d="M104.031 160.693q-17.7529 0.573242 -36.3652 0.573242q-18.6133 0 -36.9395 -2.29297q-2.29004 9.17285 -2.29004 20.0654q0 22.9326 12.8848 36.6914q12.8857 13.7598 32.9307 13.7598h30.9248l48.1064 216.708q-17.7539 -17.7725 -54.4062 -17.7725
q-18.3262 0 -32.6426 17.1992q-14.3174 16.0527 -16.6084 38.9854q84.7588 14.9053 211.323 71.6621l18.3262 -21.7852l-55.5508 -304.997h14.3174q34.3613 0 52.1152 6.30664q7.44434 -12.6133 7.44434 -33.252t-15.1758 -32.9648q-15.1768 -12.3262 -40.375 -12.3262
q-50.9697 0 -101.367 2.29297z" />
    <glyph glyph-name="ordmasculine" unicode="&#xba;" horiz-adv-x="473" 
d="M47 158q-4 20 -4 23q0 25 15 40t38 15h278q4 -10 4 -28t-14.5 -34t-45.5 -16h-271zM105 320q-35 40 -35 99t13.5 103.5t42.5 78.5q61 73 173 73q111 0 143 -86q12 -30 12 -79t-16.5 -92.5t-47.5 -74.5q-65 -62 -176 -62q-74 0 -109 40zM213 463.5q-7 -43.5 -7 -79.5
t6.5 -49t21 -13t30.5 24t28 61q27 83 27 165q0 32 -4.5 46t-21 14t-33 -25t-28.5 -62.5t-19 -81z" />
    <glyph glyph-name="guillemotright" unicode="&#xbb;" horiz-adv-x="539" 
d="M-1 126l119 191l-51 193h120l95 -193l-166 -191h-117zM228 126l119 191l-51 193h120l95 -193l-166 -191h-117z" />
    <glyph glyph-name="onequarter" unicode="&#xbc;" horiz-adv-x="815" 
d="M84 285q-22 0 -31 -3q-2 5 -2 10v10q0 23 12.5 37t30.5 14h157q27 0 48 6q8 -12 8 -32.5t-14.5 -33t-37.5 -12.5zM70 608q82 13 206 71l17 -22l-66 -354h-114l58 266q-14 -17 -51 -17q-18 0 -33 16.5t-17 39.5zM190 -62q0 10 6 25l327 755q10 2 30.5 2t33 -5.5
t12.5 -21.5t-9 -41l-323 -740q-6 -3 -31 -3q-46 0 -46 29zM742 161q11 -18 11 -40q0 -48 -76 -54l-10 -67q-16 -12 -45 -12q-48 0 -48 42v3q0 5 1 10l4 26q-72 5 -131 19l-3 65l212 235l83 -8q-26 -109 -49 -233q34 3 51 14zM508 151q50 -5 85 -5q18 84 39 147z" />
    <glyph glyph-name="onehalf" unicode="&#xbd;" horiz-adv-x="816" 
d="M84 285q-22 0 -31 -3q-2 5 -2 10v10q0 23 12.5 37t30.5 14h157q27 0 48 6q8 -12 8 -32.5t-14.5 -33t-37.5 -12.5zM70 608q82 13 206 71l17 -22l-66 -354h-114l58 266q-14 -17 -51 -17q-18 0 -33 16.5t-17 39.5zM190 -62q0 10 6 25l327 755q10 2 30.5 2t33 -5.5
t12.5 -21.5t-9 -41l-323 -740q-6 -3 -31 -3q-46 0 -46 29zM724 109q16 -11 16 -48q0 -72 -132 -72q-59 0 -145 25l-4 70l31 22l41 32q49 40 81 71.5t32 61.5q0 36 -42 36q-24 0 -46 -14t-32 -36q-14 1 -23.5 13t-9.5 29.5t11 33.5t30 28q41 26 99.5 26t91 -24.5t32.5 -62
t-15.5 -66.5t-57.5 -59l-99 -68q-20 -13 -47 -29q36 -4 69 -4t69.5 10t49.5 25z" />
    <glyph glyph-name="threequarters" unicode="&#xbe;" horiz-adv-x="820" 
d="M235 493q76 -20 76 -94q0 -54 -45 -89q-49 -38 -129 -38q-48 0 -76 18.5t-28 48.5q0 31 23 49q21 -42 76 -42q29 0 46 14.5t17 40.5q0 52 -71 52l10 52q84 14 84 56q0 35 -42 35t-76 -36q-20 4 -20 34q0 34 43 58q43 25 95 25t81 -23t29 -56.5t-25.5 -61.5t-67.5 -43z
M197 -62q0 10 6 25l327 755q10 2 24 2q40 0 48 -14q4 -5 4 -16.5t-9 -37.5l-323 -740q-6 -3 -31 -3q-46 0 -46 29zM749 161q11 -18 11 -40q0 -48 -76 -54l-10 -67q-15 -12 -39 -12h-6q-48 0 -48 42v3q0 5 1 10l4 26q-72 5 -131 19l-3 65l212 235h4l79 -8q-26 -109 -49 -233
q34 3 51 14zM515 151q50 -5 85 -5q18 84 39 147z" />
    <glyph glyph-name="questiondown" unicode="&#xbf;" horiz-adv-x="519" 
d="M251 31q22 6 66 6t76 -18t32 -50t-15.5 -56.5t-47.5 -42.5q-70 -40 -189 -40t-166 33t-47 89q0 86 84 151q26 20 57 40l191 124q39 26 39 64q29 0 48 -25t19 -60q0 -80 -76 -127l-113 -70q-51 -34 -72 -77q-8 -17 -8 -36q0 -46 46 -46q36 0 61 29q22 26 23 60t-8 52z
M259 451q0 38 28.5 58.5t70.5 20.5t68.5 -20.5t26.5 -58.5t-29.5 -59t-71.5 -21t-67.5 21t-25.5 59z" />
    <glyph glyph-name="Agrave" unicode="&#xc0;" 
d="M456 -20q-128 0 -140 182h-172q-19 -46 -34 -86l-26 -76h-140l315 660h215l42 -486q10 -105 50 -136q-29 -58 -110 -58zM175 235h138l-12 257v27l-71 -157zM212 814q0 28 28 48l245 -102l-12 -49l-119 4q-142 5 -142 99z" />
    <glyph glyph-name="Aacute" unicode="&#xc1;" 
d="M456 -20q-128 0 -140 182h-172q-19 -46 -34 -86l-26 -76h-140l315 660h215l42 -486q10 -105 50 -136q-29 -58 -110 -58zM175 235h138l-12 257v27l-71 -157zM263 759l245 102q28 -20 28 -48.5t-11.5 -46t-30.5 -28.5q-37 -22 -100 -24l-119 -4z" />
    <glyph glyph-name="Acircumflex" unicode="&#xc2;" 
d="M456 -20q-128 0 -140 182h-172q-19 -46 -34 -86l-26 -76h-140l315 660h215l42 -486q10 -105 50 -136q-29 -58 -110 -58zM175 235h138l-12 257v27l-71 -157zM213 750l193 107l136 -104l-44 -53l-115 49l-145 -54z" />
    <glyph glyph-name="Atilde" unicode="&#xc3;" 
d="M316 162q12 -182 140 -182q81 0 110 58q-40 31 -50 136l-42 486h-215l-315 -660h140l26 76q15 40 34 86h172zM175 235l55 127l71 157v-27l12 -257h-138zM267 728q-42 0 -67 -17q-20 29 -20 59t25.5 47.5t73.5 17.5q36 0 88 -6q94 -11 129.5 -11t52.5 17q19 -22 19 -54.5
t-25.5 -51.5t-70.5 -19q-18 0 -47 3l-59 6q-30 3 -57 6t-42 3z" />
    <glyph glyph-name="Adieresis" unicode="&#xc4;" 
d="M456 -20q-128 0 -140 182h-172q-19 -46 -34 -86l-26 -76h-140l315 660h215l42 -486q10 -105 50 -136q-29 -58 -110 -58zM175 235h138l-12 257v27l-71 -157zM217 725q-23 17 -23 48.5t25 48.5t60.5 17t57 -17t21.5 -48.5t-24 -48.5t-59 -17t-58 17zM403.5 725
q-22.5 17 -22.5 48.5t24.5 48.5t60 17t57.5 -17t22 -48.5t-24.5 -48.5t-59.5 -17t-57.5 17z" />
    <glyph glyph-name="Aring" unicode="&#xc5;" 
d="M456 -20q-128 0 -140 182h-172q-19 -46 -34 -86l-26 -76h-140l315 660h215l42 -486q10 -105 50 -136q-29 -58 -110 -58zM175 235h138l-12 257v27l-71 -157zM293 707.5q-26 17.5 -26 45t11.5 45.5t30.5 30q39 26 89 26q100 0 100 -67q0 -44 -40 -71q-38 -26 -88.5 -26
t-76.5 17.5zM340 760q0 -34 30 -34q22 0 40 16t18 34q0 39 -33 39q-23 0 -39 -16.5t-16 -38.5z" />
    <glyph glyph-name="AE" unicode="&#xc6;" horiz-adv-x="786" 
d="M716 90q0 -110 -177 -110q-150 0 -194 98q-15 34 -15 80v7q0 4 1 12h-157l-83 -177h-156l370 660h495v-20t-7.5 -35.5t-23.5 -37.5q-32 -32 -81.5 -32t-77 8.5t-49.5 18.5l-24 -175h189v-7q0 -50 -27 -77.5t-74 -27.5t-89 17q-9 4 -11 6l-2 -11q-11 -64 -11 -118
q0 -26 14.5 -44t51.5 -18t67.5 13.5t49.5 33.5q21 -26 21 -64zM212 254h129l44 308q-48 -78 -91 -154z" />
    <glyph glyph-name="Ccedilla" unicode="&#xc7;" horiz-adv-x="631" 
d="M539 207q26 -19 26 -59.5t-17.5 -69t-51.5 -50.5q-73 -47 -200.5 -47t-197 66.5t-69.5 184.5q0 167 87 294q66 94 184 134q61 20 121 20t97 -8t65 -24q61 -35 61 -91q0 -51 -48 -89q-44 -34 -80 -34t-51 5q4 36 4 59.5t-1 40.5t-6 33q-10 37 -40.5 37t-61 -28.5
t-56.5 -76.5q-59 -109 -59 -238q0 -62 35 -97.5t110 -35.5q56 0 109 37q23 16 40 37zM288 -59q16 2 53.5 2t68.5 -23t31 -57q0 -54 -41.5 -87.5t-109.5 -33.5q-45 0 -71 14t-26 38t18 38q19 -32 67 -32q29 0 44.5 11.5t15.5 31.5q0 47 -76 47q-20 0 -42 -2l37 123h52z" />
    <glyph glyph-name="Egrave" unicode="&#xc8;" horiz-adv-x="538" 
d="M444 154q19 -24 19 -63q0 -54 -40 -82.5t-103 -28.5q-36 0 -91 8q-108 17 -141 17t-46 -1.5t-34 -3.5l123 660h431q0 -61 -29.5 -93t-87.5 -32t-117 27l-31 -175h178q0 -53 -26 -82.5t-69.5 -29.5t-70.5 10t-30 13l-36 -189q24 -3 69 -3q77 0 132 48zM170 812q0 29 28 49
l245 -102l-12 -49l-119 4q-142 5 -142 98z" />
    <glyph glyph-name="Eacute" unicode="&#xc9;" horiz-adv-x="538" 
d="M444 154q19 -24 19 -63q0 -54 -40 -82.5t-103 -28.5q-36 0 -91 8q-108 17 -141 17t-46 -1.5t-34 -3.5l123 660h431q0 -61 -29.5 -93t-87.5 -32t-117 27l-31 -175h178q0 -53 -26 -82.5t-69.5 -29.5t-70.5 10t-30 13l-36 -189q24 -3 69 -3q77 0 132 48zM496 861
q28 -20 28 -49t-11.5 -46.5t-30.5 -29.5q-35 -20 -100 -22l-119 -4l-12 49z" />
    <glyph glyph-name="Ecircumflex" unicode="&#xca;" horiz-adv-x="538" 
d="M444 154q19 -24 19 -63q0 -54 -40 -82.5t-103 -28.5q-36 0 -91 8q-108 17 -141 17t-46 -1.5t-34 -3.5l123 660h431q0 -61 -29.5 -93t-87.5 -32t-117 27l-31 -175h178q0 -53 -26 -82.5t-69.5 -29.5t-70.5 10t-30 13l-36 -189q24 -3 69 -3q77 0 132 48zM186 749l193 107
l136 -104l-44 -53l-115 49l-145 -54z" />
    <glyph glyph-name="Edieresis" unicode="&#xcb;" horiz-adv-x="538" 
d="M444 154q19 -24 19 -63q0 -54 -40 -82.5t-103 -28.5q-36 0 -91 8q-108 17 -141 17t-46 -1.5t-34 -3.5l123 660h431q0 -61 -29.5 -93t-87.5 -32t-117 27l-31 -175h178q0 -53 -26 -82.5t-69.5 -29.5t-70.5 10t-30 13l-36 -189q24 -3 69 -3q77 0 132 48zM204 717
q-24 17 -24 48.5t26 48.5t63.5 17t60 -17t22.5 -48.5t-25 -48.5t-62 -17t-61 17zM405.5 717q-23.5 17 -23.5 48.5t25.5 48.5t63 17t60.5 -17t23 -48.5t-25.5 -48.5t-62.5 -17t-60.5 17z" />
    <glyph glyph-name="Igrave" unicode="&#xcc;" horiz-adv-x="358" 
d="M6 0l127 660h220l-129 -660h-218zM103 812q0 29 28 49l245 -102l-12 -49l-119 4q-142 5 -142 98z" />
    <glyph glyph-name="Iacute" unicode="&#xcd;" horiz-adv-x="358" 
d="M6 0l127 660h220l-129 -660h-218zM377 861q28 -20 28 -49t-12 -46.5t-31 -29.5q-35 -20 -99 -22l-119 -4l-12 49z" />
    <glyph glyph-name="Icircumflex" unicode="&#xce;" horiz-adv-x="358" 
d="M6 0l127 660h220l-129 -660h-218zM97 749l193 107l136 -104l-44 -53l-115 49l-145 -54z" />
    <glyph glyph-name="Idieresis" unicode="&#xcf;" horiz-adv-x="358" 
d="M6 0l127 660h220l-129 -660h-218zM105 717q-23 17 -23 48.5t25 48.5t60.5 17t57 -17t21.5 -48.5t-24 -48.5t-59 -17t-58 17zM291.5 717q-22.5 17 -22.5 48.5t24.5 48.5t60 17t57.5 -17t22 -48.5t-24.5 -48.5t-59.5 -17t-57.5 17z" />
    <glyph glyph-name="Eth" unicode="&#xd0;" horiz-adv-x="723" 
d="M411 387q5 -17 5 -30q0 -32 -22.5 -52t-60.5 -20h-343q-4 13 -4 37t20.5 44.5t53.5 20.5h351zM689 415q0 -426 -462 -426q-74 0 -196 18l113 591q7 40 12 63q99 11 193 11t156 -14t103 -45q81 -61 81 -198zM483 452q0 149 -107 149h-10q-5 0 -10 -1l-103 -537q4 -2 8 -2
h8q37 0 75.5 23t69.5 70q69 109 69 298z" />
    <glyph glyph-name="Ntilde" unicode="&#xd1;" horiz-adv-x="703" 
d="M10 0l120 660h215l156 -454l83 454l111 -1l-122 -659h-229l-144 437l-80 -437h-110zM335 719q-42 0 -67 -17q-20 29 -20 59t25.5 47.5t73.5 17.5q36 0 88 -6q94 -11 129.5 -11t52.5 17q19 -22 19 -54.5t-25.5 -51.5t-70.5 -19q-18 0 -47 3l-59 6q-30 3 -57 6t-42 3z" />
    <glyph glyph-name="Ograve" unicode="&#xd2;" horiz-adv-x="710" 
d="M32 244q0 189 98 308q104 129 285 129q131 0 197 -63.5t66 -197.5q0 -204 -104 -323q-103 -117 -276 -117q-135 0 -200.5 67.5t-65.5 196.5zM295 451q-45 -180 -45 -322q0 -34 11.5 -56t42 -22t49.5 14.5t34 47.5q24 54 46.5 168.5t24.5 162t2 83.5t-11 59t-40.5 23
t-49.5 -18q-37 -34 -64 -140zM280 812q0 29 28 49l245 -102l-12 -49l-119 4q-142 5 -142 98z" />
    <glyph glyph-name="Oacute" unicode="&#xd3;" horiz-adv-x="710" 
d="M32 244q0 189 98 308q104 129 285 129q131 0 197 -63.5t66 -197.5q0 -204 -104 -323q-103 -117 -276 -117q-135 0 -200.5 67.5t-65.5 196.5zM295 451q-45 -180 -45 -322q0 -34 11.5 -56t42 -22t49.5 14.5t34 47.5q24 54 46.5 168.5t24.5 162t2 83.5t-11 59t-40.5 23
t-49.5 -18q-37 -34 -64 -140zM336 759l245 102q28 -20 28 -48.5t-10.5 -46.5t-29.5 -30q-34 -20 -102 -22l-119 -4z" />
    <glyph glyph-name="Ocircumflex" unicode="&#xd4;" horiz-adv-x="710" 
d="M32 244q0 189 98 308q104 129 285 129q131 0 197 -63.5t66 -197.5q0 -204 -104 -323q-103 -117 -276 -117q-135 0 -200.5 67.5t-65.5 196.5zM295 451q-45 -180 -45 -322q0 -34 11.5 -56t42 -22t49.5 14.5t34 47.5q24 54 46.5 168.5t24.5 162t2 83.5t-11 59t-40.5 23
t-49.5 -18q-37 -34 -64 -140zM264 749l193 107l136 -104l-44 -53l-115 49l-145 -54z" />
    <glyph glyph-name="Otilde" unicode="&#xd5;" horiz-adv-x="710" 
d="M32 244q0 189 98 308q104 129 285 129q131 0 197 -63.5t66 -197.5q0 -204 -104 -323q-103 -117 -276 -117q-135 0 -200.5 67.5t-65.5 196.5zM295 451q-45 -180 -45 -322q0 -34 11.5 -56t42 -22t49.5 14.5t34 47.5q24 54 46.5 168.5t24.5 162t2 83.5t-11 59t-40.5 23
t-49.5 -18q-37 -34 -64 -140zM332 728q-42 0 -67 -17q-20 29 -20 59t25.5 47.5t73.5 17.5q36 0 88 -6q94 -11 129.5 -11t52.5 17q19 -22 19 -54.5t-25.5 -51.5t-70.5 -19q-18 0 -47 3l-59 6q-30 3 -57 6t-42 3z" />
    <glyph glyph-name="Odieresis" unicode="&#xd6;" horiz-adv-x="710" 
d="M32 244q0 189 98 308q104 129 285 129q131 0 197 -63.5t66 -197.5q0 -204 -104 -323q-103 -117 -276 -117q-135 0 -200.5 67.5t-65.5 196.5zM295 451q-45 -180 -45 -322q0 -34 11.5 -56t42 -22t49.5 14.5t34 47.5q24 54 46.5 168.5t24.5 162t2 83.5t-11 59t-40.5 23
t-49.5 -18q-37 -34 -64 -140zM275 717q-24 17 -24 48.5t26 48.5t63.5 17t60 -17t22.5 -48.5t-25 -48.5t-62 -17t-61 17zM476.5 717q-23.5 17 -23.5 48.5t25.5 48.5t63 17t60.5 -17t23 -48.5t-25.5 -48.5t-62.5 -17t-60.5 17z" />
    <glyph glyph-name="multiply" unicode="&#xd7;" horiz-adv-x="479" 
d="M-25 35l184 188l-58 78q-13 18 -26 34.5t-13 43.5t18.5 46.5t51.5 26.5l104 -149l112 115q28 30 64.5 30t48.5 -30l-73 -73l-102 -106q18 -26 34 -47l30 -39q15 -19 26.5 -35.5t11.5 -32.5q0 -32 -22 -53t-57 -22q-6 10 -14 22l-20 30l-68 96l-81 -84l-32 -35
q-28 -28 -65.5 -28t-53.5 24z" />
    <glyph glyph-name="Oslash" unicode="&#xd8;" horiz-adv-x="710" 
d="M39.5 -41.5q-15.5 16.5 -16 48t23.5 58.5l545 620q15 19 25 36q22 0 39.5 -20.5t17.5 -49.5t-26 -57l-507 -570q-34 -35 -61 -82q-25 0 -40.5 16.5zM32 244q0 189 98 308q104 129 285 129q131 0 197 -63.5t66 -197.5q0 -204 -104 -323q-103 -117 -276 -117
q-135 0 -200.5 67.5t-65.5 196.5zM295 451q-45 -180 -45 -322q0 -34 11.5 -56t42 -22t49.5 14.5t34 47.5q24 54 46.5 168.5t24.5 162t2 83.5t-11 59t-40.5 23t-49.5 -18q-37 -34 -64 -140z" />
    <glyph glyph-name="Ugrave" unicode="&#xd9;" horiz-adv-x="669" 
d="M36 148q0 39 10 89l81 423h221l-80 -426q-9 -47 -9 -81.5t14.5 -52.5t41.5 -18t44 7t31 24q27 34 44 121l81 426h151l-80 -425q-28 -142 -105 -199q-75 -56 -223 -56q-111 0 -170 48q-52 42 -52 120zM264 812q0 29 28 49l245 -102l-12 -49l-119 4q-142 5 -142 98z" />
    <glyph glyph-name="Uacute" unicode="&#xda;" horiz-adv-x="669" 
d="M36 148q0 39 10 89l81 423h221l-80 -426q-9 -47 -9 -81.5t14.5 -52.5t41.5 -18t44 7t31 24q27 34 44 121l81 426h151l-80 -425q-28 -142 -105 -199q-75 -56 -223 -56q-111 0 -170 48q-52 42 -52 120zM335 759l245 102q14 -10 21 -20.5t7 -33.5t-11.5 -41t-30.5 -29
q-37 -21 -100 -23l-119 -4z" />
    <glyph glyph-name="Ucircumflex" unicode="&#xdb;" horiz-adv-x="669" 
d="M36 148q0 39 10 89l81 423h221l-80 -426q-9 -47 -9 -81.5t14.5 -52.5t41.5 -18t44 7t31 24q27 34 44 121l81 426h151l-80 -425q-28 -142 -105 -199q-75 -56 -223 -56q-111 0 -170 48q-52 42 -52 120zM267 749l193 107l136 -104l-44 -53l-115 49l-145 -54z" />
    <glyph glyph-name="Udieresis" unicode="&#xdc;" horiz-adv-x="669" 
d="M36 148q0 39 10 89l81 423h221l-80 -426q-9 -47 -9 -81.5t14.5 -52.5t41.5 -18t44 7t31 24q27 34 44 121l81 426h151l-80 -425q-28 -142 -105 -199q-75 -56 -223 -56q-111 0 -170 48q-52 42 -52 120zM275 717q-24 17 -24 48.5t26 48.5t63.5 17t60 -17t22.5 -48.5
t-25 -48.5t-62 -17t-61 17zM476.5 717q-23.5 17 -23.5 48.5t25.5 48.5t63 17t60.5 -17t23 -48.5t-25.5 -48.5t-62.5 -17t-60.5 17z" />
    <glyph glyph-name="Yacute" unicode="&#xdd;" horiz-adv-x="596" 
d="M170 294q-29 271 -131 329q21 26 55 40.5t75 14.5t72 -14.5t51 -45.5q38 -59 38 -200v-72q60 176 120 252q61 78 137 78q30 0 50 -15.5t30 -38.5q-77 -34 -151 -132t-122 -235l-59 -255h-223zM256 749l245 102q14 -10 21 -20.5t7 -33.5t-11.5 -41t-31.5 -29
q-36 -21 -99 -23l-119 -4z" />
    <glyph glyph-name="Thorn" unicode="&#xde;" horiz-adv-x="650" 
d="M410 530q219 0 219 -173q0 -96 -61.5 -153.5t-164.5 -57.5q-50 0 -88 28q-18 12 -31 28q76 0 116 50q36 47 36 126q0 89 -86 89h-21q-8 0 -13 -1l-91 -466h-219l127 660h220l-26 -131q20 1 40 1h43z" />
    <glyph glyph-name="germandbls" unicode="&#xdf;" horiz-adv-x="755" 
d="M-130 -128q43 0 78.5 42.5t51.5 114.5l109 531q19 99 96 150t205 51q97 0 158 -38q59 -38 59 -98q0 -40 -21.5 -66t-48 -48.5t-48 -45t-21.5 -54.5q0 -17 17 -30t43 -29l70 -44q54 -33 76.5 -62t22.5 -68.5t-21 -76.5t-58 -64q-78 -57 -197 -57q-65 0 -113.5 33.5
t-48.5 74.5t28 66t70.5 25t68.5 -16q-13 -29 -13 -88q3 -46 38 -46q26 0 42 13q26 22 26 47.5t-18 48.5t-54.5 46.5t-61 46t-42.5 45.5q-39 50 -39 82.5t10.5 56t26.5 44.5t35 41t35 42q37 49 37 99q0 32 -18 53.5t-39.5 21.5t-37.5 -12t-30 -33q-29 -43 -43 -115l-102 -528
q-22 -115 -73 -166q-50 -50 -136.5 -50t-118.5 60z" />
    <glyph glyph-name="agrave" unicode="&#xe0;" horiz-adv-x="628" 
d="M26.5 97q-10.5 41 -10.5 108t23 128t65 105q86 92 228 92q51 0 88 -17l171 17l-74 -390q-3 -12 -3 -34t13.5 -36t33.5 -16q-10 -34 -46.5 -54t-77.5 -20t-68.5 15.5t-35.5 41.5q-16 -25 -50 -41t-79.5 -16t-82.5 12t-60.5 38t-34 67zM250 387.5q-10 -30.5 -26.5 -112
t-16.5 -139.5t9 -75t25 -17q32 0 55.5 30.5t32.5 84.5l53 293q-21 18 -45.5 18t-39 -8t-26 -26t-21.5 -48.5zM221 658q-12 18 -12 41q0 53 36 67l236 -146l-21 -48l-123 23q-84 15 -116 63z" />
    <glyph glyph-name="aacute" unicode="&#xe1;" horiz-adv-x="628" 
d="M514 769q36 -14 36 -66q0 -44 -42 -72q-35 -24 -86 -33l-123 -23l-21 48zM26.5 97q-10.5 41 -10.5 108t23 128t65 105q86 92 228 92q51 0 88 -17l171 17l-74 -390q-3 -12 -3 -34t13.5 -36t33.5 -16q-10 -34 -46.5 -54t-77.5 -20t-68.5 15.5t-35.5 41.5q-16 -25 -50 -41
t-79.5 -16t-82.5 12t-60.5 38t-34 67zM250 387.5q-10 -30.5 -26.5 -112t-16.5 -139.5t9 -75t25 -17q32 0 55.5 30.5t32.5 84.5l53 293q-21 18 -45.5 18t-39 -8t-26 -26t-21.5 -48.5z" />
    <glyph glyph-name="acircumflex" unicode="&#xe2;" horiz-adv-x="628" 
d="M26.5 97q-10.5 41 -10.5 108t23 128t65 105q86 92 228 92q51 0 88 -17l171 17l-74 -390q-3 -12 -3 -34t13.5 -36t33.5 -16q-10 -34 -46.5 -54t-77.5 -20t-68.5 15.5t-35.5 41.5q-16 -25 -50 -41t-79.5 -16t-82.5 12t-60.5 38t-34 67zM250 387.5q-10 -30.5 -26.5 -112
t-16.5 -139.5t9 -75t25 -17q32 0 55.5 30.5t32.5 84.5l53 293q-21 18 -45.5 18t-39 -8t-26 -26t-21.5 -48.5zM190 639l195 130l153 -131l-50 -61l-117 72l-148 -72z" />
    <glyph glyph-name="atilde" unicode="&#xe3;" horiz-adv-x="628" 
d="M26.5 97q-10.5 41 -10.5 108t23 128t65 105q86 92 228 92q51 0 88 -17l171 17l-74 -390q-3 -12 -3 -34t13.5 -36t33.5 -16q-10 -34 -46.5 -54t-77.5 -20t-68.5 15.5t-35.5 41.5q-16 -25 -50 -41t-79.5 -16t-82.5 12t-60.5 38t-34 67zM250 387.5q-10 -30.5 -26.5 -112
t-16.5 -139.5t9 -75t25 -17q32 0 55.5 30.5t32.5 84.5l53 293q-21 18 -45.5 18t-39 -8t-26 -26t-21.5 -48.5zM276 617q-42 0 -67 -17q-20 29 -20 59t25.5 47.5t73.5 17.5q36 0 88 -6q94 -11 129.5 -11t52.5 17q19 -22 19 -54.5t-25.5 -51.5t-70.5 -19q-18 0 -47 3l-59 6
q-30 3 -57 6t-42 3z" />
    <glyph glyph-name="adieresis" unicode="&#xe4;" horiz-adv-x="628" 
d="M26.5 97q-10.5 41 -10.5 108t23 128t65 105q86 92 228 92q51 0 88 -17l171 17l-74 -390q-3 -12 -3 -34t13.5 -36t33.5 -16q-10 -34 -46.5 -54t-77.5 -20t-68.5 15.5t-35.5 41.5q-16 -25 -50 -41t-79.5 -16t-82.5 12t-60.5 38t-34 67zM250 387.5q-10 -30.5 -26.5 -112
t-16.5 -139.5t9 -75t25 -17q32 0 55.5 30.5t32.5 84.5l53 293q-21 18 -45.5 18t-39 -8t-26 -26t-21.5 -48.5zM181 606q-26 17 -26 48.5t28.5 48.5t70.5 17t67 -17t25 -48.5t-28 -48.5t-69.5 -17t-67.5 17zM414 606q-26 17 -26 48.5t28.5 48.5t70.5 17t67 -17t25 -48.5
t-28 -48.5t-69.5 -17t-67.5 17z" />
    <glyph glyph-name="aring" unicode="&#xe5;" horiz-adv-x="628" 
d="M26.5 97q-10.5 41 -10.5 108t23 128t65 105q86 92 228 92q51 0 88 -17l171 17l-74 -390q-3 -12 -3 -34t13.5 -36t33.5 -16q-10 -34 -46.5 -54t-77.5 -20t-68.5 15.5t-35.5 41.5q-16 -25 -50 -41t-79.5 -16t-82.5 12t-60.5 38t-34 67zM250 387.5q-10 -30.5 -26.5 -112
t-16.5 -139.5t9 -75t25 -17q32 0 55.5 30.5t32.5 84.5l53 293q-21 18 -45.5 18t-39 -8t-26 -26t-21.5 -48.5zM281 597.5q-26 18.5 -26 47t11.5 47.5t30.5 32q39 27 89 27t75 -18.5t25 -47t-11 -47.5t-29 -32q-39 -27 -89 -27t-76 18.5zM347 692.5q-15 -17.5 -15 -36.5
q0 -39 28 -39q23 0 37.5 17t14.5 36q0 40 -29 40q-21 0 -36 -17.5z" />
    <glyph glyph-name="ae" unicode="&#xe6;" horiz-adv-x="857" 
d="M536 235q-4 -36 -4 -48q0 -81 75 -81q67 0 117 38q15 12 23 25q25 -18 25 -54t-18 -59.5t-49 -40.5q-64 -35 -149.5 -35t-132.5 19.5t-71 63.5q-17 -35 -56.5 -59t-93.5 -24t-89 14t-57 42q-40 53 -40 161q0 150 88 241q87 92 226 92q73 -4 129 -42q84 42 204 42
q83 0 130 -31.5t47 -87.5q0 -176 -304 -176zM382 452q-22 18 -47 18t-48.5 -23t-42.5 -66q-41 -96 -41 -243q0 -97 42 -97q32 0 55 42q29 53 47 176zM543 278q69 0 111 42t42 111q0 48 -40 48q-36 0 -65.5 -52t-47.5 -149z" />
    <glyph glyph-name="ccedilla" unicode="&#xe7;" horiz-adv-x="518" 
d="M508 416q0 -42 -35 -68t-92 -26q-24 0 -38 7q11 26 14.5 58.5t3.5 41.5q0 42 -29 42q-20 0 -42.5 -25t-41.5 -64q-42 -90 -42 -181q0 -50 19 -72.5t61 -22.5q58 0 104 48q13 15 20 32q38 -20 38 -75q0 -56 -62 -93q-64 -38 -166 -38q-203 0 -203 215q0 157 89 247
q86 88 244 88t158 -114zM192 -59q16 2 53.5 2t68.5 -23t31 -57q0 -54 -41.5 -87.5t-109.5 -33.5q-45 0 -71 14t-26 38t18 38q19 -32 67 -32q29 0 44.5 11.5t15.5 31.5q0 47 -76 47q-20 0 -42 -2l37 123h52z" />
    <glyph glyph-name="egrave" unicode="&#xe8;" horiz-adv-x="532" 
d="M422 169q25 -17 25 -54.5t-19 -61.5t-50 -40q-64 -33 -133 -33t-109.5 15t-67.5 43q-53 53 -53 150q0 151 82 243q88 99 241 99q95 0 142 -40q35 -30 35 -79q0 -176 -304 -176q-4 -26 -4 -48q0 -46 20.5 -63.5t58.5 -17.5t78.5 17.5t57.5 45.5zM218 278q71 0 112 44
q41 42 41 109q0 23 -8.5 35.5t-25.5 12.5t-31.5 -6.5t-29.5 -28.5q-37 -50 -58 -166zM176 658q-12 18 -12 41q0 53 36 67l236 -146l-21 -48l-123 23q-84 15 -116 63z" />
    <glyph glyph-name="eacute" unicode="&#xe9;" horiz-adv-x="532" 
d="M422 169q25 -17 25 -54.5t-19 -61.5t-50 -40q-64 -33 -133 -33t-109.5 15t-67.5 43q-53 53 -53 150q0 151 82 243q88 99 241 99q95 0 142 -40q35 -30 35 -79q0 -176 -304 -176q-4 -26 -4 -48q0 -46 20.5 -63.5t58.5 -17.5t78.5 17.5t57.5 45.5zM218 278q71 0 112 44
q41 42 41 109q0 23 -8.5 35.5t-25.5 12.5t-31.5 -6.5t-29.5 -28.5q-37 -50 -58 -166zM485 769q36 -14 36 -66q0 -44 -42 -72q-35 -24 -86 -33l-123 -23l-21 48z" />
    <glyph glyph-name="ecircumflex" unicode="&#xea;" horiz-adv-x="532" 
d="M422 169q25 -17 25 -54.5t-19 -61.5t-50 -40q-64 -33 -133 -33t-109.5 15t-67.5 43q-53 53 -53 150q0 151 82 243q88 99 241 99q95 0 142 -40q35 -30 35 -79q0 -176 -304 -176q-4 -26 -4 -48q0 -46 20.5 -63.5t58.5 -17.5t78.5 17.5t57.5 45.5zM218 278q71 0 112 44
q41 42 41 109q0 23 -8.5 35.5t-25.5 12.5t-31.5 -6.5t-29.5 -28.5q-37 -50 -58 -166zM167 638l195 130l153 -131l-50 -61l-117 72l-148 -72z" />
    <glyph glyph-name="edieresis" unicode="&#xeb;" horiz-adv-x="532" 
d="M422 169q25 -17 25 -54.5t-19 -61.5t-50 -40q-64 -33 -133 -33t-109.5 15t-67.5 43q-53 53 -53 150q0 151 82 243q88 99 241 99q95 0 142 -40q35 -30 35 -79q0 -176 -304 -176q-4 -26 -4 -48q0 -46 20.5 -63.5t58.5 -17.5t78.5 17.5t57.5 45.5zM218 278q71 0 112 44
q41 42 41 109q0 23 -8.5 35.5t-25.5 12.5t-31.5 -6.5t-29.5 -28.5q-37 -50 -58 -166zM153 606.934q-26 16.8301 -26 48.0146t28.5 48.0146t70.5 16.8301t67 -16.8301t25 -48.0146t-28 -48.0146q-28 -16.8291 -69.5 -16.8291t-67.5 16.8291zM386 606.934
q-26 16.8301 -26 48.0146t28.5 48.0146t70.5 16.8301t67 -16.8301t25 -48.0146t-28 -48.0146q-28 -16.8291 -69.5 -16.8291t-67.5 16.8291z" />
    <glyph glyph-name="igrave" unicode="&#xec;" horiz-adv-x="323" 
d="M255 55q-31 -75 -130 -75q-50 0 -81 35q-27 29 -27 62q0 81 37 239l37 194l201 20l-61 -316q-17 -74 -17 -100q0 -57 41 -59zM94 658q-12 18 -12 41q0 53 36 67l236 -146l-21 -48l-123 23q-84 15 -116 63z" />
    <glyph glyph-name="iacute" unicode="&#xed;" horiz-adv-x="323" 
d="M255 55q-31 -75 -130 -75q-50 0 -81 35q-27 29 -27 62q0 81 37 239l37 194l201 20l-61 -316q-17 -74 -17 -100q0 -57 41 -59zM325 769q36 -14 36 -66q0 -44 -42 -72q-35 -24 -86 -33l-123 -23l-21 48z" />
    <glyph glyph-name="icircumflex" unicode="&#xee;" horiz-adv-x="323" 
d="M255 55q-31 -75 -130 -75q-50 0 -81 35q-27 29 -27 62q0 81 37 239l37 194l201 20l-61 -316q-17 -74 -17 -100q0 -57 41 -59zM68 619l154 147l122 -147l-41 -46l-92 72l-118 -72z" />
    <glyph glyph-name="idieresis" unicode="&#xef;" horiz-adv-x="323" 
d="M255 55q-31 -75 -130 -75q-50 0 -81 35q-27 29 -27 62q0 81 37 239l37 194l201 20l-61 -316q-17 -74 -17 -100q0 -57 41 -59zM38 655q0 32 26 48.5t63 16.5t60 -16.5t23 -48.5t-25 -48t-62.5 -16t-61 16t-23.5 48zM237 655q0 32 25.5 48.5t63.5 16.5t60 -16.5t22 -48.5
t-25 -48t-62 -16t-60.5 16t-23.5 48z" />
    <glyph glyph-name="eth" unicode="&#xf0;" horiz-adv-x="589" 
d="M598 720q13 -11 13 -37q0 -30 -50 -48l-29 -10q32 -61 32 -145q0 -206 -82 -340q-45 -75 -110.5 -117.5t-146.5 -42.5q-211 0 -211 201q0 150 84 243q85 95 219 95q51 0 75 -11q6 27 6 40q0 19 -2 29l-103 -37q-15 15 -15 31q0 33 33 44l57 21q-20 15 -44.5 15t-37.5 -9
q-4 6 -4 16q0 31 28 46.5t82 15.5t98 -40zM380 441q-23 19 -61 19t-59.5 -35t-35.5 -110q-22 -125 -22 -182t8.5 -75.5t29 -18.5t38 22.5t34.5 70.5q31 88 68 309z" />
    <glyph glyph-name="ntilde" unicode="&#xf1;" horiz-adv-x="627" 
d="M254 617q-42 0 -67 -17q-20 29 -20 59t25.5 47.5t73.5 17.5q36 0 88 -6q94 -11 129.5 -11t52.5 17q19 -22 19 -54.5t-25.5 -51.5t-70.5 -19q-18 0 -47 3l-59 6q-30 3 -57 6t-42 3zM440 -20q-121 0 -121 94q1 26 9 70l18 92q27 130 27 159q0 58 -34 58q-57 0 -87 -149
l-59 -304l-201 -20l104 531l164 19l-16 -98q47 98 191 98q70 0 99.5 -29.5t29.5 -95.5q0 -62 -32 -207q-15 -65 -15 -89.5t13.5 -38.5t33.5 -16q-10 -34 -44.5 -54t-79.5 -20z" />
    <glyph glyph-name="ograve" unicode="&#xf2;" horiz-adv-x="591" 
d="M235 -20q-220 0 -220 207q0 147 81 242q86 101 235 101q108 0 163 -50t55 -155q0 -160 -86 -253q-84 -92 -228 -92zM239.5 347.5q-9.5 -40.5 -21.5 -104.5t-12 -143q0 -26 8.5 -43t31.5 -17t37.5 11t25.5 37q20 46 36 131.5t17.5 122.5t1.5 64.5t-8 45.5t-30.5 18
t-37.5 -14t-27 -41t-21.5 -67.5zM193 658q-12 18 -12 41q0 53 36 67l236 -146l-21 -48l-123 23q-84 15 -116 63z" />
    <glyph glyph-name="oacute" unicode="&#xf3;" horiz-adv-x="591" 
d="M235 -20q-220 0 -220 207q0 147 81 242q86 101 235 101q108 0 163 -50t55 -155q0 -160 -86 -253q-84 -92 -228 -92zM239.5 347.5q-9.5 -40.5 -21.5 -104.5t-12 -143q0 -26 8.5 -43t31.5 -17t37.5 11t25.5 37q20 46 36 131.5t17.5 122.5t1.5 64.5t-8 45.5t-30.5 18
t-37.5 -14t-27 -41t-21.5 -67.5zM475 769q36 -14 36 -66q0 -44 -42 -72q-35 -24 -86 -33l-123 -23l-21 48z" />
    <glyph glyph-name="ocircumflex" unicode="&#xf4;" horiz-adv-x="591" 
d="M235 -20q-220 0 -220 207q0 147 81 242q86 101 235 101q108 0 163 -50t55 -155q0 -160 -86 -253q-84 -92 -228 -92zM239.5 347.5q-9.5 -40.5 -21.5 -104.5t-12 -143q0 -26 8.5 -43t31.5 -17t37.5 11t25.5 37q20 46 36 131.5t17.5 122.5t1.5 64.5t-8 45.5t-30.5 18
t-37.5 -14t-27 -41t-21.5 -67.5zM172 638l195 130l153 -131l-50 -61l-117 72l-148 -72z" />
    <glyph glyph-name="otilde" unicode="&#xf5;" horiz-adv-x="591" 
d="M235 -20q-220 0 -220 207q0 147 81 242q86 101 235 101q108 0 163 -50t55 -155q0 -160 -86 -253q-84 -92 -228 -92zM239.5 347.5q-9.5 -40.5 -21.5 -104.5t-12 -143q0 -26 8.5 -43t31.5 -17t37.5 11t25.5 37q20 46 36 131.5t17.5 122.5t1.5 64.5t-8 45.5t-30.5 18
t-37.5 -14t-27 -41t-21.5 -67.5zM247 616q-42 0 -67 -17q-20 29 -20 59t25.5 47.5t73.5 17.5q36 0 88 -6q94 -11 129.5 -11t52.5 17q19 -22 19 -54.5t-25.5 -51.5t-70.5 -19q-18 0 -47 3l-59 6q-30 3 -57 6t-42 3z" />
    <glyph glyph-name="odieresis" unicode="&#xf6;" horiz-adv-x="591" 
d="M235 -20q-220 0 -220 207q0 147 81 242q86 101 235 101q108 0 163 -50t55 -155q0 -160 -86 -253q-84 -92 -228 -92zM239.5 347.5q-9.5 -40.5 -21.5 -104.5t-12 -143q0 -26 8.5 -43t31.5 -17t37.5 11t25.5 37q20 46 36 131.5t17.5 122.5t1.5 64.5t-8 45.5t-30.5 18
t-37.5 -14t-27 -41t-21.5 -67.5zM167 606.934q-26 16.8301 -26 48.0146t28.5 48.0146t70.5 16.8301t67 -16.8301t25 -48.0146t-28 -48.0146q-28 -16.8291 -69.5 -16.8291t-67.5 16.8291zM400 606.934q-26 16.8301 -26 48.0146t28.5 48.0146t70.5 16.8301t67 -16.8301
t25 -48.0146t-28 -48.0146q-28 -16.8291 -69.5 -16.8291t-67.5 16.8291z" />
    <glyph glyph-name="divide" unicode="&#xf7;" horiz-adv-x="482" 
d="M14 191q-4 16 -4 39t21 41.5t53 18.5h351q5 -20 5 -43t-20 -39.5t-62 -16.5h-344zM116 76q0 30 23 46.5t55.5 16.5t53 -16.5t20.5 -46.5t-22.5 -46t-55 -16t-53.5 16t-21 46zM183 404q0 30 23 46.5t55.5 16.5t53 -16.5t20.5 -46.5t-22.5 -46t-55 -16t-53.5 16t-21 46z
" />
    <glyph glyph-name="oslash" unicode="&#xf8;" horiz-adv-x="591" 
d="M24 -43q-12 15 -12 32q-1 34 19 56l435 484l28 33q11 14 23 32q15 0 31.5 -15.5t16.5 -33.5q0 -33 -22 -57l-433 -477q-30 -32 -51 -69q-23 0 -35 15zM235 -20q-220 0 -220 207q0 147 81 242q86 101 235 101q108 0 163 -50t55 -155q0 -160 -86 -253q-84 -92 -228 -92z
M239.5 347.5q-9.5 -40.5 -21.5 -104.5t-12 -143q0 -26 8.5 -43t31.5 -17t37.5 11t25.5 37q20 46 36 131.5t17.5 122.5t1.5 64.5t-8 45.5t-30.5 18t-37.5 -14t-27 -41t-21.5 -67.5z" />
    <glyph glyph-name="ugrave" unicode="&#xf9;" horiz-adv-x="635" 
d="M338 42q-48 -62 -167 -62q-62 0 -107 37.5t-45 91.5q0 30 3 45l67 356l203 20l-73 -386q-4 -22 -4 -35q0 -58 35 -58q39 0 67 53q9 17 13 39l71 367l197 20l-74 -390q-3 -15 -3 -31t9 -33.5t38 -21.5q-6 -24 -27 -40q-44 -34 -91.5 -34t-75.5 17t-36 45zM226 658
q-12 18 -12 41q0 53 36 67l236 -146l-21 -48l-123 23q-84 15 -116 63z" />
    <glyph glyph-name="uacute" unicode="&#xfa;" horiz-adv-x="635" 
d="M338 42q-48 -62 -167 -62q-62 0 -107 37.5t-45 91.5q0 30 3 45l67 356l203 20l-73 -386q-4 -22 -4 -35q0 -58 35 -58q39 0 67 53q9 17 13 39l71 367l197 20l-74 -390q-3 -15 -3 -31t9 -33.5t38 -21.5q-6 -24 -27 -40q-44 -34 -91.5 -34t-75.5 17t-36 45zM521 769
q36 -14 36 -66q0 -44 -42 -72q-35 -24 -86 -33l-123 -23l-21 48z" />
    <glyph glyph-name="ucircumflex" unicode="&#xfb;" horiz-adv-x="635" 
d="M338 42q-48 -62 -167 -62q-62 0 -107 37.5t-45 91.5q0 30 3 45l67 356l203 20l-73 -386q-4 -22 -4 -35q0 -58 35 -58q39 0 67 53q9 17 13 39l71 367l197 20l-74 -390q-3 -15 -3 -31t9 -33.5t38 -21.5q-6 -24 -27 -40q-44 -34 -91.5 -34t-75.5 17t-36 45zM190 639l195 130
l153 -131l-50 -61l-117 72l-148 -72z" />
    <glyph glyph-name="udieresis" unicode="&#xfc;" horiz-adv-x="635" 
d="M338 42q-48 -62 -167 -62q-62 0 -107 37.5t-45 91.5q0 30 3 45l67 356l203 20l-73 -386q-4 -22 -4 -35q0 -58 35 -58q39 0 67 53q9 17 13 39l71 367l197 20l-74 -390q-3 -15 -3 -31t9 -33.5t38 -21.5q-6 -24 -27 -40q-44 -34 -91.5 -34t-75.5 17t-36 45zM190 606
q-26 17 -26 48.5t28.5 48.5t70.5 17t67 -17t25 -48.5t-28 -48.5t-69.5 -17t-67.5 17zM423 606q-26 17 -26 48.5t28.5 48.5t70.5 17t67 -17t25 -48.5t-28 -48.5t-69.5 -17t-67.5 17z" />
    <glyph glyph-name="yacute" unicode="&#xfd;" horiz-adv-x="618" 
d="M335 113q-52 -54 -147 -54q-119 0 -144 87q-8 26 -8 55t6 59l47 250l203 20l-55 -291q-2 -13 -5 -27t-3 -28.5t5 -24t12 -15.5q12 -8 33.5 -8t40 26t27.5 71l55 277l197 20l-75 -393q-37 -192 -113 -268q-39 -39 -89.5 -54.5t-115.5 -15.5q-105 0 -165 33t-60 88
q0 41 31 64.5t79 23.5q42 0 74 -18q19 -11 28 -25q-23 -20 -23 -53q0 -44 40 -44q66 0 104 152q11 45 21 93zM519 769q36 -14 36 -66q0 -44 -42 -72q-35 -24 -86 -33l-123 -23l-21 48z" />
    <glyph glyph-name="thorn" unicode="&#xfe;" horiz-adv-x="618" 
d="M-41 -200l173 900l203 20l-31 -153q-10 -44 -25 -79q24 27 70 38q14 4 31 4q93 0 144 -56.5t51 -165.5q0 -142 -81 -231q-87 -97 -245 -97q-27 0 -58 3l-29 -163zM209 57q21 -18 47 -18t41 10t26 30q30 54 54 219q7 47 7 94t-10.5 62t-30.5 15q-61 0 -81 -119z" />
    <glyph glyph-name="ydieresis" unicode="&#xff;" horiz-adv-x="618" 
d="M335 113q-52 -54 -147 -54q-119 0 -144 87q-8 26 -8 55t6 59l47 250l203 20l-55 -291q-2 -13 -5 -27t-3 -28.5t5 -24t12 -15.5q12 -8 33.5 -8t40 26t27.5 71l55 277l197 20l-75 -393q-37 -192 -113 -268q-39 -39 -89.5 -54.5t-115.5 -15.5q-105 0 -165 33t-60 88
q0 41 31 64.5t79 23.5q42 0 74 -18q19 -11 28 -25q-23 -20 -23 -53q0 -44 40 -44q66 0 104 152q11 45 21 93zM188 606.934q-26 16.8301 -26 48.0146t28.5 48.0146t70.5 16.8301t67 -16.8301t25 -48.0146t-28 -48.0146q-28 -16.8291 -69.5 -16.8291t-67.5 16.8291z
M421 606.934q-26 16.8301 -26 48.0146t28.5 48.0146t70.5 16.8301t67 -16.8301t25 -48.0146t-28 -48.0146q-28 -16.8291 -69.5 -16.8291t-67.5 16.8291z" />
    <glyph glyph-name="Ccaron" unicode="&#x10c;" horiz-adv-x="631" 
d="M539 207q26 -19 26 -59.5t-17.5 -69t-51.5 -50.5q-73 -47 -200.5 -47t-197 66.5t-69.5 184.5q0 167 87 294q66 94 184 134q61 20 121 20t97 -8t65 -24q61 -35 61 -91q0 -51 -48 -89q-44 -34 -80 -34t-51 5q4 36 4 59.5t-1 40.5t-6 33q-10 37 -40.5 37t-61 -28.5
t-56.5 -76.5q-59 -109 -59 -238q0 -62 35 -97.5t110 -35.5q56 0 109 37q23 16 40 37zM292 861l50 46l117 -72l148 72l31 -46l-193 -146z" />
    <glyph glyph-name="ccaron" unicode="&#x10d;" horiz-adv-x="518" 
d="M508 416q0 -42 -35 -68t-92 -26q-24 0 -38 7q11 26 14.5 58.5t3.5 41.5q0 42 -29 42q-20 0 -42.5 -25t-41.5 -64q-42 -90 -42 -181q0 -50 19 -72.5t61 -22.5q58 0 104 48q13 15 20 32q38 -20 38 -75q0 -56 -62 -93q-64 -38 -166 -38q-203 0 -203 215q0 157 89 247
q86 88 244 88t158 -114zM189 711l50 46l117 -72l148 72l31 -46l-193 -146z" />
    <glyph glyph-name="Eogonek" unicode="&#x118;" horiz-adv-x="539" 
d="M444 154q19 -24 19 -63q0 -54 -40 -82.5t-103 -28.5q-36 0 -91 8q-108 17 -141 17t-46 -1.5t-34 -3.5l123 660h431q0 -61 -29.5 -93t-87.5 -32t-117 27l-31 -175h178q0 -53 -26 -82.5t-69.5 -29.5t-70.5 10t-30 13l-36 -189q24 -3 69 -3q77 0 132 48zM440 -166
q18 -14 18 -34.5t-27 -39t-86.5 -18.5t-92.5 30t-33 87q0 60 49 105q44 41 110 58l39 -16q-95 -60 -95 -148q0 -49 50 -49t68 25z" />
    <glyph glyph-name="eogonek" unicode="&#x119;" horiz-adv-x="532" 
d="M422 169q25 -17 25 -54.5t-19 -61.5t-50 -40q-64 -33 -133 -33t-109.5 15t-67.5 43q-53 53 -53 150q0 151 82 243q88 99 241 99q95 0 142 -40q35 -30 35 -79q0 -176 -304 -176q-4 -26 -4 -48q0 -46 20.5 -63.5t58.5 -17.5t78.5 17.5t57.5 45.5zM218 278q71 0 112 44
q41 42 41 109q0 23 -8.5 35.5t-25.5 12.5t-31.5 -6.5t-29.5 -28.5q-37 -50 -58 -166zM383 -166q18 -14 18 -34.5t-27 -39t-86.5 -18.5t-92.5 30t-33 87q0 60 49 105q44 41 110 58l39 -16q-95 -60 -95 -148q0 -49 50 -49t68 25z" />
    <glyph glyph-name="dotlessi" unicode="&#x131;" horiz-adv-x="323" 
d="M255 55q-31 -75 -130 -75q-50 0 -81 35q-27 29 -27 62q0 81 37 239l37 194l201 20l-61 -316q-17 -74 -17 -100q0 -57 41 -59z" />
    <glyph glyph-name="Lslash" unicode="&#x141;" horiz-adv-x="529" 
d="M-8 199q-21 19 -21 42q0 48 45 63l401 147q19 -16 19 -51q0 -43 -70 -67zM460 154q19 -24 19 -70.5t-35.5 -75t-97.5 -28.5q-36 0 -92 8q-110 17 -141.5 17t-44.5 -1.5t-34 -3.5l121 660h219l-100 -550q13 -2 25 -2h25q84 0 136 46z" />
    <glyph glyph-name="lslash" unicode="&#x142;" horiz-adv-x="382" 
d="M4 217q-21 19 -21 42q0 46 45 63l349 129q19 -16 19 -51q0 -43 -70 -67zM294 55q-31 -75 -130 -75q-50 0 -82 35q-26 29 -26 62q0 75 35 239l73 384l203 20l-97 -506q-17 -74 -17 -100q0 -57 41 -59z" />
    <glyph glyph-name="OE" unicode="&#x152;" horiz-adv-x="900" 
d="M693 109q73 0 116 45q21 -26 21 -64q0 -110 -180 -110q-51 0 -96 22q-44 20 -52 50q-34 -35 -84 -53.5t-133 -18.5q-125 0 -190 69.5t-65 198.5q0 91 29 170t79.5 137t119 91.5t138 33.5t118.5 -20h400v-9q0 -50 -30.5 -83t-89 -33t-114.5 27l-24 -175h184v-7
q0 -49 -26.5 -77t-74.5 -28q-40 0 -66 9.5t-31 13.5l-2 -11q-11 -68 -11 -118q0 -25 19 -42.5t45 -17.5zM246 293.5q-7 -49.5 -7 -93.5t2.5 -70.5t8.5 -42.5q11 -30 41 -30t61 35.5t55 93.5q53 128 53 284q0 81 -8.5 103.5t-19 29t-28.5 6.5t-37.5 -17t-38.5 -47t-35 -70
t-28 -86t-19 -95.5z" />
    <glyph glyph-name="oe" unicode="&#x153;" horiz-adv-x="859" 
d="M399 21q-69 -41 -190 -41q-94 0 -143.5 55t-49.5 158q0 152 86 244q87 93 225 93q49 0 82.5 -8t63.5 -28q51 20 94 28t112.5 8t116.5 -31.5t47 -87.5q0 -176 -304 -176q-4 -34 -4 -48q0 -81 75 -81q67 0 117 38q15 12 23 25q25 -18 25 -53t-17 -58.5t-47 -41.5
q-63 -36 -161 -36t-151 41zM219 249.5q-11 -62.5 -11 -117t8 -74t28 -19.5t42 31.5t40 81.5q39 113 39 235q0 47 -7 65.5t-27.5 18.5t-43 -30.5t-40 -79.5t-28.5 -111.5zM546 278q69 0 111 42t42 111q0 48 -40 48q-36 0 -66 -52t-47 -149z" />
    <glyph glyph-name="Scaron" unicode="&#x160;" horiz-adv-x="590" 
d="M407 462q15 30 15 58t-3 43.5t-10 27.5q-15 26 -45 26q-37 0 -67 -27q-32 -28 -32 -72q0 -28 19.5 -49.5t49.5 -41.5t64 -40t64 -44q69 -55 69 -129q0 -50 -26.5 -92.5t-70.5 -73.5q-96 -68 -223 -68q-103 0 -156 33.5t-53 84.5q0 91 71 114q20 7 50.5 7t65.5 -13
q-16 -41 -16 -78q0 -80 57 -80q37 0 67.5 27t30.5 57.5t-19.5 52.5t-48.5 39.5t-62.5 34.5t-62.5 41q-68 55 -68 143q0 57 28 101.5t73 74.5q90 61 200.5 61t164 -33t53.5 -89q0 -49 -38 -80q-33 -26 -73 -26t-68 10zM245 807l36 48l124 -54l148 50l31 -44l-196 -107z" />
    <glyph glyph-name="scaron" unicode="&#x161;" horiz-adv-x="486" 
d="M316 351q14 37 14 69q0 59 -48 59q-25 0 -45.5 -22.5t-20.5 -50.5q0 -20 16 -36q23 -22 82 -58t81.5 -65.5t22.5 -70t-19.5 -77.5t-54.5 -63q-75 -56 -195 -56q-65 0 -115 34q-50 33 -50 72t28.5 62t70.5 23t68 -16q-13 -33 -13 -55q0 -66 56 -66q24 0 40 15t16 41
q0 51 -86 105q-70 46 -86 64q-27 32 -27 72t19 78t54 65q73 56 200 56q65 0 103.5 -26t38.5 -70t-26.5 -69t-74.5 -25q-33 0 -49 11zM156 720l50 46l117 -72l148 72l31 -46l-193 -146z" />
    <glyph glyph-name="Ydieresis" unicode="&#x178;" horiz-adv-x="596" 
d="M170 294q-29 271 -131 329q21 26 55 40.5t75 14.5t72 -14.5t51 -45.5q38 -59 38 -200v-72q60 176 120 252q61 78 137 78q30 0 50 -15.5t30 -38.5q-77 -34 -151 -132t-122 -235l-59 -255h-223zM204 715.934q-26 16.8301 -26 48.0146t28.5 48.0146t70.5 16.8301
t67 -16.8301t25 -48.0146t-28 -48.0146q-28 -16.8291 -69.5 -16.8291t-67.5 16.8291zM437 715.934q-26 16.8301 -26 48.0146t28.5 48.0146t70.5 16.8301t67 -16.8301t25 -48.0146t-28 -48.0146q-28 -16.8291 -69.5 -16.8291t-67.5 16.8291z" />
    <glyph glyph-name="Zdotaccent" unicode="&#x17b;" horiz-adv-x="577" 
d="M147 11q-28 4 -57.5 4t-44.5 -15q-23 17 -35 71q-4 15 -4 40q0 54 62 107l312 256q-129 21 -181 21t-100 -23q-27 44 -27 95t37.5 77t100.5 26q28 0 58 -4l60 -8l59 -9q29 -4 66.5 -4t79.5 10q40 -35 40 -93q0 -70 -48 -108l-340 -272q73 -20 194 -20q60 0 98 30
q17 -22 21.5 -40.5t4.5 -45t-9 -48t-28 -37.5q-38 -33 -122 -33q-62 0 -115.5 9.5t-81.5 13.5zM301 756q-26 17 -26 48.5t28.5 48.5t70.5 17t67 -17t25 -48.5t-28 -48.5t-69.5 -17t-67.5 17z" />
    <glyph glyph-name="zdotaccent" unicode="&#x17c;" horiz-adv-x="504" 
d="M137.5 4.5q-24.5 4.5 -53 4.5t-56.5 -10q-15 9 -24.5 27t-9.5 46q0 59 60 104l254 183q-71 20 -135.5 20t-87.5 -44q-34 40 -34 103q0 42 30.5 69.5t94.5 27.5q36 0 68.5 -4.5t61.5 -8.5l54 -8q26 -4 52.5 -4t46.5 11q26 -24 26 -57q0 -52 -64 -106l-253 -189
q78 -23 118 -23q84 0 120 40q28 -32 28 -87.5t-36 -87t-101 -31.5q-40 0 -87.5 10t-72 14.5zM245 606q-26 17 -26 48.5t28.5 48.5t70.5 17t67 -17t25 -48.5t-28 -48.5t-69.5 -17t-67.5 17z" />
    <glyph glyph-name="Zcaron" unicode="&#x17d;" horiz-adv-x="577" 
d="M147 11q-28 4 -57.5 4t-44.5 -15q-23 17 -35 71q-4 15 -4 40q0 54 62 107l312 256q-129 21 -181 21t-100 -23q-27 44 -27 95t37.5 77t100.5 26q28 0 58 -4l60 -8l59 -9q29 -4 66.5 -4t79.5 10q40 -35 40 -93q0 -70 -48 -108l-340 -272q73 -20 194 -20q60 0 98 30
q17 -22 21.5 -40.5t4.5 -45t-9 -48t-28 -37.5q-38 -33 -122 -33q-62 0 -115.5 9.5t-81.5 13.5zM217 807l36 48l124 -54l148 50l31 -44l-196 -107z" />
    <glyph glyph-name="zcaron" unicode="&#x17e;" horiz-adv-x="504" 
d="M137.5 4.5q-24.5 4.5 -53 4.5t-56.5 -10q-15 9 -24.5 27t-9.5 46q0 59 60 104l254 183q-71 20 -135.5 20t-87.5 -44q-34 40 -34 103q0 42 30.5 69.5t94.5 27.5q36 0 68.5 -4.5t61.5 -8.5l54 -8q26 -4 52.5 -4t46.5 11q26 -24 26 -57q0 -52 -64 -106l-253 -189
q78 -23 118 -23q84 0 120 40q28 -32 28 -87.5t-36 -87t-101 -31.5q-40 0 -87.5 10t-72 14.5zM155 719l50 46l117 -72l148 72l31 -46l-193 -146z" />
    <glyph glyph-name="florin" unicode="&#x192;" horiz-adv-x="525" 
d="M534 388q0 -46 -76 -46h-96l-60 -306q-21 -108 -98 -164q-72 -52 -182 -52q-76 0 -124 25q-49 26 -49 69.5t24.5 64.5t78.5 21q28 0 51 -13q-17 -30 -17 -56.5t7.5 -36.5t28 -10t42.5 36t40 120l63 302h-97q-5 15 -5 32.5t18.5 30t48.5 12.5h51l32 151q17 82 83 128.5
t188 46.5q74 0 123 -29q50 -29 50 -69q0 -93 -110 -93q-30 0 -51 13q18 34 18 61q0 53 -35 53q-23 0 -43.5 -32t-31.5 -83l-29 -147h151q6 -15 6 -29z" />
    <glyph glyph-name="circumflex" unicode="&#x2c6;" horiz-adv-x="406" 
d="M-30 640l195 130l153 -131l-50 -61l-117 72l-148 -72z" />
    <glyph glyph-name="caron" unicode="&#x2c7;" horiz-adv-x="375" 
d="M32 711l50 46l117 -72l148 72l31 -46l-193 -146z" />
    <glyph glyph-name="breve" unicode="&#x2d8;" horiz-adv-x="357" 
d="M-28 693q0 12 3 27h100q-4 -19 -4 -36.5t12 -32.5t28.5 -15t29.5 6.5t23 17.5q24 26 30 60h94q-19 -94 -118 -124q-31 -9 -67 -9q-63 0 -97 28t-34 78z" />
    <glyph glyph-name="dotaccent" unicode="&#x2d9;" horiz-adv-x="251" 
d="M63 606q-26 17 -26 48.5t28.5 48.5t70.5 17t67 -17t25 -48.5t-28 -48.5t-69.5 -17t-67.5 17z" />
    <glyph glyph-name="ring" unicode="&#x2da;" horiz-adv-x="276" 
d="M-9 584.5q-26 20.5 -26 52.5t11.5 53.5t30.5 35.5q39 30 89 30q100 0 100 -78q0 -53 -40 -84q-38 -30 -88.5 -30t-76.5 20.5zM38 645q0 -43 30 -43q22 0 40 20.5t18 43.5q0 49 -33 49q-23 0 -39 -21t-16 -49z" />
    <glyph glyph-name="ogonek" unicode="&#x2db;" horiz-adv-x="480" 
d="M288 -166q18 -14 18 -34.5t-27 -39t-86.5 -18.5t-92.5 30t-33 87q0 60 49 105q44 41 110 58l39 -16q-95 -60 -95 -148q0 -49 50 -49t68 25z" />
    <glyph glyph-name="tilde" unicode="&#x2dc;" horiz-adv-x="460" 
d="M65 620q-42 0 -67 -17q-20 29 -20 59t25.5 47.5t73.5 17.5q36 0 88 -6q94 -11 129.5 -11t52.5 17q19 -22 19 -54.5t-25.5 -51.5t-70.5 -19q-18 0 -47 3l-59 6q-30 3 -57 6t-42 3z" />
    <glyph glyph-name="hungarumlaut" unicode="&#x2dd;" horiz-adv-x="482" 
d="M-38 568l159 221q27 -8 44 -32t17 -58q0 -62 -80 -106l-94 -52zM163 568l159 221q27 -8 44 -32t17 -57q0 -63 -80 -107l-94 -52z" />
    <glyph glyph-name="Omega" unicode="&#x3a9;" horiz-adv-x="723" 
d="M473 474q-2 135 -63 135q-35 0 -63.5 -31t-48.5 -81q-43 -104 -43 -237q0 -87 21 -127q8 -14 19 -28l-30 -105h-169q-51 0 -69 21.5t-18 45.5q0 48 25 83q19 -23 42 -30q41 -12 107 -12q-69 19 -102.5 73t-33.5 151q0 63 25.5 125.5t73.5 112t115.5 80.5t151.5 31
q125 0 195.5 -61t70.5 -192q0 -120 -61 -205q-62 -87 -172 -115q75 0 123.5 13.5t59.5 28.5q16 -28 16 -64t-26 -61t-93 -25h-182v105q54 32 93 155q36 112 36 214z" />
    <glyph glyph-name="pi" unicode="&#x3c0;" horiz-adv-x="574" 
d="M541 531q29 -29 29 -70.5t-33.5 -68t-89.5 -30.5q-10 -62 -13 -102t-4 -54t-2 -24t-1 -16v-14q0 -97 73 -99q-26 -79 -111 -79q-38 0 -65 26q-28 25 -28 61q0 65 26 186l24 121l-105 10l-74 -378l-146 -20l129 407l-24 1q-27 0 -51.5 -7.5t-36.5 -18.5q-8 22 -8 67.5
t42.5 72.5t109.5 27q36 0 107 -9q129 -15 157 -15q62 0 95 26z" />
    <glyph glyph-name="endash" unicode="&#x2013;" horiz-adv-x="588" 
d="M29 218q0 33 21 53.5t53 20.5h421q14 -52 -16 -82q-21 -20 -62 -20h-413q-4 13 -4 28z" />
    <glyph glyph-name="emdash" unicode="&#x2014;" horiz-adv-x="1088" 
d="M29 218q0 33 21 53.5t53 20.5h921q5 -17 5 -29q0 -30 -20.5 -51.5t-62.5 -21.5h-913q-4 13 -4 28z" />
    <glyph glyph-name="quoteleft" unicode="&#x2018;" horiz-adv-x="249" 
d="M309 724q-77 -83 -77 -187q0 -32 11 -62q-12 -8 -36 -13.5t-42 -5.5q-45 0 -70.5 24.5t-25.5 67.5t15 74.5t42 55.5q57 52 140 52q16 0 43 -6z" />
    <glyph glyph-name="quoteright" unicode="&#x2019;" horiz-adv-x="264" 
d="M49 463q77 83 77 187q0 32 -11 62q12 8 36 13.5t42 5.5q45 0 70.5 -25t25.5 -67.5t-15 -74t-42 -55.5q-57 -52 -140 -52q-16 0 -43 6z" />
    <glyph glyph-name="quotesinglbase" unicode="&#x201a;" horiz-adv-x="244" 
d="M-72 -130q77 83 77 187q0 32 -11 62q12 8 36 13.5t42 5.5q45 0 70.5 -24t25.5 -68q0 -4 -1.5 -23t-17 -51t-41.5 -56q-56 -52 -137 -52q-16 0 -43 6z" />
    <glyph glyph-name="quotedblleft" unicode="&#x201c;" horiz-adv-x="488" 
d="M310 725q-77 -83 -77 -187q0 -32 11 -62q-12 -8 -36 -13.5t-42 -5.5q-45 0 -70.5 25t-25.5 67.5t15 74t41 55.5q58 52 141 52q16 0 43 -6zM548 725q-77 -83 -77 -187q0 -32 11 -62q-12 -8 -36 -13.5t-42 -5.5q-45 0 -70.5 25t-25.5 67t15 74t41 56q58 52 141 52
q16 0 43 -6z" />
    <glyph glyph-name="quotedblright" unicode="&#x201d;" horiz-adv-x="502" 
d="M49 463q77 83 77 187q0 32 -11 62q12 8 36 13.5t42 5.5q45 0 70.5 -25t25.5 -67.5t-15 -74.5t-42 -56q-56 -51 -140 -51q-16 0 -43 6zM287 463q77 83 77 187q0 32 -11 62q12 8 36 13.5t42 5.5q45 0 70.5 -25t25.5 -67t-15 -74t-42 -56q-57 -52 -140 -52q-16 0 -43 6z" />
    <glyph glyph-name="quotedblbase" unicode="&#x201e;" horiz-adv-x="483" 
d="M-72 -130q77 83 77 187q0 32 -11 62q12 8 36 13.5t42 5.5q45 0 70.5 -25t25.5 -67t-15 -74t-41 -56q-58 -52 -141 -52q-16 0 -43 6zM166 -130q77 83 77 187q0 32 -11 62q12 8 36 13.5t42 5.5q45 0 70.5 -25t25.5 -67t-15 -74t-41 -56q-58 -52 -141 -52q-16 0 -43 6z" />
    <glyph glyph-name="dagger" unicode="&#x2020;" horiz-adv-x="466" 
d="M180 361q-63 -7 -137 -30q-7 14 -7 34.5t3 38.5t9 35q10 32 28 57q57 -19 124 -30q3 25 3 73.5t-17 105.5q48 26 107 26t96 -26q-51 -101 -75 -181q49 6 138 34q10 -16 10 -38t-3.5 -40t-9.5 -34q-12 -34 -32 -54q-68 21 -122 29l-51 -420q-1 -6 -1 -12v-11q0 -19 3 -31
q-52 -31 -109 -31q-71 0 -71 69q0 29 9.5 65.5t22.5 80.5z" />
    <glyph glyph-name="daggerdbl" unicode="&#x2021;" horiz-adv-x="482" 
d="M107 74q-69 -12 -110 -26q-7 14 -7 34.5t3 38.5t9 35q10 32 28 57q58 -19 110 -26l49 174q-63 -7 -137 -30q-7 14 -7 34.5t3 38.5t8 35q11 32 29 57q57 -19 124 -30q3 25 3 73.5t-17 105.5q48 26 107 26t96 -26q-51 -101 -75 -181q49 6 138 34q10 -16 10 -38t-3.5 -40
t-9.5 -34q-12 -34 -32 -54q-68 21 -122 29l-12 -81q-7 -47 -13 -94q69 10 127 30q10 -16 10 -38t-3.5 -40t-9.5 -35q-12 -34 -32 -54q-57 17 -108 26q-10 -55 -10 -112.5t2 -75.5q-52 -31 -100.5 -31t-64 19.5t-15.5 50t10.5 70.5t21.5 78z" />
    <glyph glyph-name="bullet" unicode="&#x2022;" horiz-adv-x="335" 
d="M159 363q55 0 88.5 -27t33.5 -78t-37 -77.5t-91.5 -26.5t-89 26.5t-34.5 76.5t37.5 78t92.5 28z" />
    <glyph glyph-name="ellipsis" unicode="&#x2026;" horiz-adv-x="707" 
d="M-13 59q0 38 29.5 59t71.5 21t67.5 -21t25.5 -59t-28.5 -58.5t-70.5 -20.5t-68.5 20.5t-26.5 58.5zM212 59q0 38 29.5 59t71.5 21t67.5 -21t25.5 -59t-28.5 -58.5t-70.5 -20.5t-68.5 20.5t-26.5 58.5zM437 59q0 38 29.5 59t71.5 21t67.5 -21t25.5 -59t-28.5 -58.5
t-70.5 -20.5t-68.5 20.5t-26.5 58.5z" />
    <glyph glyph-name="perthousand" unicode="&#x2030;" horiz-adv-x="1464" 
d="M86.5 326q-35.5 40 -35.5 98t13.5 103t41.5 79q62 73 175 73q155 0 155 -159q0 -108 -65 -172q-64 -62 -176 -62q-73 0 -108.5 40zM128 11l602 633q17 17 43.5 28t50.5 11q52 0 67 -39l-601 -628q-34 -36 -88 -36q-52 0 -74 31zM210 337q41 0 70 67q27 64 27 156
q0 68 -30 68q-39 0 -67 -76q-27 -70 -27 -142.5t27 -72.5zM631.5 20q-35.5 40 -35.5 98t13.5 103t42.5 79q61 73 174 73q111 0 144 -85q12 -30 12 -79t-17 -92.5t-49 -74.5q-64 -62 -176 -62q-73 0 -108.5 40zM756 31q21 0 39 18.5t31 48.5q26 65 26 156q0 68 -30 68
q-37 0 -67 -76q-27 -69 -27 -142t28 -73zM1062.5 20q-35.5 40 -35.5 98t13.5 103t41.5 79q62 73 175 73q111 0 144 -85q12 -30 12 -79t-17 -92.5t-48 -74.5q-65 -62 -177 -62q-73 0 -108.5 40zM1187 31q21 0 39 18.5t30 48.5q27 65 27 156q0 68 -30 68q-37 0 -67 -76
q-27 -69 -27 -142t28 -73z" />
    <glyph glyph-name="guilsinglleft" unicode="&#x2039;" horiz-adv-x="311" 
d="M24 317l167 193h120l-123 -193l48 -191h-117z" />
    <glyph glyph-name="guilsinglright" unicode="&#x203a;" horiz-adv-x="310" 
d="M-1 126l119 191l-51 193h120l95 -193l-166 -191h-117z" />
    <glyph glyph-name="fraction" unicode="&#x2044;" horiz-adv-x="279" 
d="M-68 -62q0 10 6 25l327 755q10 2 30.5 2t33 -5.5t12.5 -21.5t-9 -41l-323 -740q-6 -3 -31 -3q-46 0 -46 29z" />
    <glyph glyph-name="Euro" unicode="&#x20ac;" horiz-adv-x="664" 
d="M572 198q20 -16 20 -58.5t-19.5 -69.5t-54.5 -47q-74 -43 -183.5 -43t-170 58.5t-66.5 170.5h-82q-5 13 -5 31.5t18.5 31t48.5 12.5h22q2 30 8 58h-66q-5 13 -5 31.5t18.5 31t48.5 12.5h23q43 122 135 192q94 71 218 71q72 0 126 -30q52 -28 52 -68q0 -93 -116 -93
q-32 0 -53 13q16 30 16 56.5t-13 41.5t-34 17q-45 0 -86 -58q-42 -57 -64 -142h161q6 -15 6 -29q0 -46 -76 -46h-106q-5 -35 -5 -58h155q6 -15 6 -29q0 -46 -76 -46h-77q29 -86 132 -86q55 0 105 37q22 17 39 38z" />
    <glyph glyph-name="trademark" unicode="&#x2122;" horiz-adv-x="804" 
d="M117 564q-20 18 -20 48q0 39 37 55q14 6 34 6t38.5 -2.5t37.5 -5.5q49 -8 71 -8t36 9q6 -6 12.5 -15.5t6.5 -31.5t-20 -41.5t-52 -19.5t-66 10t-71 10t-44 -14zM187 289q-58 0 -58 69q0 49 31 137q13 35 27 65l23 48l51 -15q-24 -120 -24 -171t27 -95q-38 -38 -77 -38z
M769 316q-11 -27 -60 -27q-54 0 -65 53q-3 14 -3 38q0 70 11 164l-55 -124q-26 -60 -48 -123h-67l-42 247l-52 -247h-60l85 363h107l36 -215q52 109 94 215h99q-11 -214 -11 -222v-12q0 -63 18 -92q5 -9 13 -18z" />
    <glyph glyph-name="onethird" unicode="&#x2153;" horiz-adv-x="838" 
d="M84 285q-22 0 -31 -3q-2 5 -2 10v10q0 23 12.5 37t30.5 14h157q27 0 48 6q8 -12 8 -32.5t-14.5 -33t-37.5 -12.5zM70 608q82 13 206 71l17 -22l-66 -354h-114l58 266q-14 -17 -51 -17q-18 0 -33 16.5t-17 39.5zM190 -62q0 10 6 25l327 755q10 2 30.5 2t33 -5.5
t12.5 -21.5t-9 -41l-323 -740q-6 -3 -31 -3q-46 0 -46 29zM691 210q76 -20 76 -94q0 -54 -45 -90q-49 -37 -129 -37q-48 0 -76 18.5t-28 48.5q0 31 23 49q21 -42 76 -42q29 0 46 14.5t17 40.5q0 52 -71 52l10 52q84 14 84 56q0 35 -42 35t-76 -36q-20 4 -20 34q0 34 43 59
q43 24 95 24t81 -23t29 -56.5t-25.5 -61.5t-67.5 -43z" />
    <glyph glyph-name="twothirds" unicode="&#x2154;" horiz-adv-x="848" 
d="M207 -62q0 10 6 25l327 755q10 2 30.5 2t33 -5.5t12.5 -21.5t-9 -41l-323 -740q-6 -3 -31 -3q-46 0 -46 29zM491.141 209.857q76.3125 -19.6709 76.3125 -94.3037q0 -53.8057 -45.6719 -89.0977q-48.5625 -37.0273 -128.344 -37.0273q-47.4062 0 -75.7344 18.2246
t-28.3281 48.3096q0 30.084 22.5469 48.5977q11.5625 -21.4062 32.0859 -31.2412q20.5234 -9.83594 46.8281 -9.83594t43.0703 13.8857q16.7656 13.8848 16.7656 41.0771q0 51.4912 -70.5312 51.4912l9.82812 52.0693q84.4062 13.8857 84.4062 55.541
q0 16.7783 -11.5625 26.0352t-33.5312 9.25684q-38.7344 0 -72.8438 -35.8701q-10.9844 2.89258 -15.6094 10.7031t-4.625 24.0098t11.5625 31.5312q11.5625 15.3311 31.7969 26.9023q43.3594 24.2998 101.75 24.2998q44.5156 0 72.8438 -23.1426
q29.4844 -23.7207 29.4844 -59.0127q0 -31.8203 -25.4375 -59.5908t-67.0625 -42.8125zM25.1289 249.334l71.2275 54.7031l44.4463 36.4688q22.793 19.374 39.3184 36.4688q30.2002 30.2012 30.2002 59.2617q0 17.0947 -11.1113 26.2119q-11.1123 9.11719 -27.3516 9.11719
q-16.2402 0 -27.9219 -3.7041q-11.6807 -3.70312 -21.9385 -9.97168q-21.6523 -14.2451 -31.9102 -35.8994q-14.2451 0.570312 -23.6475 12.5371q-9.40137 11.9658 -9.40137 29.3457q0 17.3789 10.8262 33.6191t30.2012 28.7764q42.166 26.2119 100.004 26.2119
q57.8369 0 90.3164 -25.0723q32.4805 -25.0723 32.4805 -67.8086q0 -31.9102 -15.6699 -60.9717t-57.2676 -58.6924l-61.541 -43.3066l-37.0391 -24.502l-47.2949 -29.0605l19.9434 -2.2793q13.6758 -1.70996 37.6094 -1.70996q23.9316 0 43.876 2.56445
q19.9443 2.56348 37.0381 7.69238q37.6094 10.2568 49.5752 24.502q6.26855 -4.55859 11.1113 -16.2393q4.84375 -11.6816 4.84375 -25.9268q0 -42.7373 -32.4795 -60.4023q-32.4805 -17.6641 -99.1504 -17.6641q-34.7588 0 -80.9141 9.97168
q-46.1562 9.97168 -64.9609 15.6709z" />
    <glyph glyph-name="oneeighth" unicode="&#x215b;" horiz-adv-x="833" 
d="M84 285q-22 0 -31 -3q-2 5 -2 10v10q0 23 12.5 37t30.5 14h157q27 0 48 6q8 -12 8 -32.5t-14.5 -33t-37.5 -12.5zM70 608q82 13 206 71l17 -22l-66 -354h-114l58 266q-14 -17 -51 -17q-18 0 -33 16.5t-17 39.5zM190 -62q0 10 6 25l327 755q10 2 30.5 2t33 -5.5
t12.5 -21.5t-9 -41l-323 -740q-6 -3 -31 -3q-46 0 -46 29zM473 78q0 67 86 108q-38 31 -38 65t12.5 58t33.5 41q45 38 102 38t84.5 -22t27.5 -57t-24.5 -59.5t-55.5 -38.5q35 -29 48.5 -46.5t13.5 -44t-13 -51.5t-36 -43q-46 -39 -111 -39t-97.5 25.5t-32.5 65.5zM593 155
q-29 -24 -29 -61q0 -20 9 -33.5t27 -13.5t32 13t14 31t-13 29zM666 239q32 15 32 50q0 18 -10 30t-28 12t-29.5 -10t-11.5 -28t13 -28z" />
    <glyph glyph-name="partialdiff" unicode="&#x2202;" horiz-adv-x="597" 
d="M324 651q-19 0 -32 -9q-4 6 -4 16q0 31 28 46.5t72.5 15.5t77.5 -18.5t56 -50.5q46 -66 46 -161q0 -216 -82 -350q-45 -75 -110.5 -117.5t-148.5 -42.5q-216 0 -216 206q0 153 86 248.5t224 95.5q52 0 76 -11q3 18 3 37q0 95 -76 95zM386 452q-23 19 -62 19t-62 -36
q-29 -47 -54 -230q-5 -37 -5 -82t9 -64t30 -19t39 23t35 73q34 94 70 316z" />
    <glyph glyph-name="uni2206" unicode="&#x2206;" horiz-adv-x="666" 
d="M-36 0l335 660h215q4 -60 22 -228l44 -366q5 -45 7 -66h-623zM131 73h252l-42 419v29l-126 -261l-47 -101q-21 -46 -37 -86z" />
    <glyph glyph-name="product" unicode="&#x220f;" horiz-adv-x="876" 
d="M87 566q-15 18 -15 52q0 30 23.5 46.5t49.5 16.5h688q31 0 52 14q21 -21 21 -50.5t-15.5 -47.5t-38.5 -18h-90q-23 -123 -43 -214t-29 -147q-14 -96 -14 -149v-11q0 -34 11 -55t29 -38q-15 -22 -52 -42.5t-80.5 -20.5t-65 9t-36.5 24q-27 28 -27 70q0 40 17 135l10 57
q11 65 27 140l46 242h-147l-128 -657h-207l127 657h-47q-46 0 -66 -13z" />
    <glyph glyph-name="summation" unicode="&#x2211;" horiz-adv-x="747" 
d="M650 556q-16 24 -57 24h-239l134 -243l-264 -247h204q93 0 146 39q21 15 31 38q33 -20 48 -54t15 -67q0 -125 -197 -125h-523l368 360l-226 401h501q84 0 84 -65q0 -15 -7 -32.5t-18 -28.5z" />
    <glyph glyph-name="minus" unicode="&#x2212;" horiz-adv-x="536" 
d="M463 292q5 -20 5 -30q0 -32 -22.5 -52t-60.5 -20h-343q-4 13 -4 36.5t20 44.5t54 21h351z" />
    <glyph glyph-name="radical" unicode="&#x221a;" horiz-adv-x="1100" 
d="M15 493q23 20 45.5 28.5t69 8.5t74.5 -36q37 -47 38 -152q1 -29 1 -58t-1 -56v-52q-2 -48 -2 -78l326 715h630q5 -17 5 -29q0 -30 -20.5 -47t-62.5 -17h-456l-367 -740l-209 13q-6 208 -20 321l-10 76q-11 84 -41 103z" />
    <glyph glyph-name="infinity" unicode="&#x221e;" horiz-adv-x="688" 
d="M357 352q84 108 177 108q61 0 89 -35t28 -80.5t-14.5 -84.5t-40.5 -71q-58 -73 -137 -73q-42 0 -78.5 25.5t-68.5 90.5q-40 -59 -81.5 -87.5t-91.5 -28.5t-84 33.5t-34 87.5q0 36 15 75.5t42 72.5q61 75 146 75q47 0 77 -28.5t56 -79.5zM114 235q26 -33 63 -33t65.5 21
t50.5 47q-24 51 -40 67q-30 33 -68 33t-61.5 -24.5t-23.5 -59t14 -51.5zM381 311q62 -102 120 -102q30 0 51 29q19 26 19 57t-18.5 55.5t-53 24.5t-60.5 -12.5t-58 -51.5z" />
    <glyph glyph-name="integral" unicode="&#x222b;" horiz-adv-x="527" 
d="M459 565q23 40 23 68t-8 37t-25.5 9t-35.5 -33t-27 -82l-106 -564q-16 -83 -75 -131.5t-152 -48.5q-58 0 -97 23t-39 66.5t20 67t66 23.5q29 0 46 -13q-24 -29 -24 -66t33 -37q23 0 39.5 33t25.5 82l110 569q16 83 73 129t150 46q58 0 96.5 -28t38.5 -72t-19.5 -67.5
t-66.5 -23.5q-29 0 -46 13z" />
    <glyph glyph-name="approxequal" unicode="&#x2248;" horiz-adv-x="538" 
d="M62 85q-22 28 -22 57t29 48t82 19q24 0 55 -6l123 -25q28 -6 47 -6t40 8.5t29 23.5q21 -24 21 -53.5t-28.5 -51t-79.5 -21.5q-32 0 -88 12q-106 24 -130 24t-46.5 -8t-31.5 -21zM62 260q-22 28 -22 56.5t29 48t82 19.5q24 0 55 -6l64 -12l59 -13q28 -6 47 -6t40 8.5
t29 23.5q21 -24 21 -54t-28.5 -51t-79.5 -21q-28 0 -86 12q-111 23 -133.5 23t-45 -7.5t-31.5 -20.5z" />
    <glyph glyph-name="notequal" unicode="&#x2260;" horiz-adv-x="490" 
d="M14 116q0 32 20.5 52.5t52.5 20.5h348q5 -17 5 -30q0 -30 -20 -50.5t-62 -20.5h-340q-4 13 -4 28zM14 292q0 32 20.5 52t52.5 20h348q5 -17 5 -30q0 -30 -20 -50t-62 -20h-340q-4 13 -4 28zM52 11q0 28 15 54l236 400q7 13 13 22.5t11 18.5l21 37q21 0 36 -14
q27 -25 27 -54.5t-16 -58.5l-259 -434l-22 -40q-31 0 -46.5 20.5t-15.5 48.5z" />
    <glyph glyph-name="lessequal" unicode="&#x2264;" horiz-adv-x="433" 
d="M-2 0q-4 15 -4 37.5t18.5 38.5t50.5 16h292q5 -18 5 -38.5t-18.5 -37t-59.5 -16.5h-284zM28 298l191 134q25 17 40.5 22t33.5 5t35.5 -13.5t27.5 -30.5l-175 -117l105 -90q20 -14 20 -31q0 -30 -56 -67z" />
    <glyph glyph-name="greaterequal" unicode="&#x2265;" horiz-adv-x="420" 
d="M-18 0q-4 15 -4 37.5t18.5 38.5t50.5 16h292q5 -18 5 -38.5t-18.5 -37t-59.5 -16.5h-284zM36 167l175 117l-103 80q-20 14 -20 31q0 30 56 67l220 -178l-191 -134q-25 -17 -40.5 -22t-33.5 -5t-35.5 13.5t-27.5 30.5z" />
    <glyph glyph-name="lozenge" unicode="&#x25ca;" horiz-adv-x="626" 
d="M26 330l276 330h181l117 -332l-276 -328h-181zM191 382l93 -291l150 185l-92 292z" />
    <glyph glyph-name="uniE000" unicode="&#xe000;" horiz-adv-x="530" 
d="M0 530h530v-530h-530v530z" />
    <glyph glyph-name="uniFB00" unicode="&#xfb00;" horiz-adv-x="703" 
d="M724 580q14 24 14 50q0 46 -28 46q-40 0 -58 -88l-15 -78h91l-6 -45h-94l-85 -465l-203 -20l93 485h-125l-90 -465l-203 -20l99 485h-74l9 45h76l15 62q20 79 92 113.5t172 34.5t142 -26q59 26 155 26t138 -24t42 -56t-25 -52t-54 -20q-54 0 -78 12zM316 510h126l20 99
q6 21 6 35t-15 22t-31 8t-28.5 -3.5t-23.5 -13.5q-27 -23 -38 -75z" />
    <glyph glyph-name="uniFB01" unicode="&#xfb01;" horiz-adv-x="679" 
d="M14 -20q3 15 10 46l48 230l40 209h-71l9 45h72l21 69q20 78 85 109.5t196 31.5q179 0 227 -56q14 -17 14 -46q0 -60 -120 -60q-36 0 -75 22q-10 5 -14 11q11 19 11 39t-13.5 32t-31 12t-29.5 -3.5t-23 -13.5q-26 -22 -37 -75l-16 -72h325l-61 -312q-14 -77 -14 -94
q0 -28 21 -41q9 -6 21 -8q-13 -48 -76 -67q-24 -8 -54.5 -8t-50.5 10t-33 25q-25 29 -25 61q0 76 35 240l29 149h-125l-91 -465z" />
    <glyph glyph-name="uniFB02" unicode="&#xfb02;" horiz-adv-x="678" 
d="M470 654q-16 20 -52 20q-29 0 -44 -14q-30 -27 -41 -78l-16 -72h70l-10 -45h-68l-91 -464l-203 -20q1 7 7.5 35t17.5 84l30 146q18 89 42 219h-71l9 45h72l21 69q34 112 179 134q46 7 101.5 7t115.5 -20l144 20l-109 -564q-6 -31 -6 -49t9.5 -35t30.5 -17
q-12 -49 -75 -68q-23 -7 -52.5 -7t-49.5 10t-33 25q-27 29 -27 62q0 75 35 239l24 129q11 53 18 89l10 58q4 21 6 33t3.5 18t2.5 11z" />
    <glyph glyph-name="NULL" horiz-adv-x="0" 
 />
    <glyph glyph-name=".null.001" horiz-adv-x="0" 
 />
    </font>
</defs>
</svg>
